<?xml version="1.0" standalone="no"?>
<!DOCTYPE svg PUBLIC "-//W3C//DTD SVG 1.1//EN" "http://www.w3.org/Graphics/SVG/1.1/DTD/svg11.dtd" >
<svg xmlns="http://www.w3.org/2000/svg">
<metadata></metadata>
<defs>
<font id="bromelloregular" horiz-adv-x="589" >
<font-face units-per-em="2048" ascent="1536" descent="-512" />
<missing-glyph horiz-adv-x="307" />
<glyph horiz-adv-x="0" />
<glyph horiz-adv-x="682" />
<glyph horiz-adv-x="0" />
<glyph horiz-adv-x="0" />
<glyph unicode="&#xd;" horiz-adv-x="307" />
<glyph unicode=" "  horiz-adv-x="307" />
<glyph unicode="&#x09;" horiz-adv-x="307" />
<glyph unicode="&#xa0;" horiz-adv-x="307" />
<glyph unicode="0" horiz-adv-x="925" d="M524 1520q84 0 123 -39q35 -40 62 -74q16 -22 18 -23q47 -43 98 -139q3 -7 13 -18q15 -17 24 -60q3 -13 25 -131q5 -36 8 -43q9 -24 2 -51q-9 -36 0 -72v-18q-4 -34 -2 -51q9 -50 -21 -131q-6 -15 -32 -111q-33 -128 -64 -188q-3 -6 -10.5 -25t-13.5 -29 q-9 -17 -28 -50.5t-28 -49.5q-4 -4 -8 -12q-20 -43 -78 -113q-6 -7 -19 -17.5t-18 -15.5q-13 -13 -28 -22q-8 -4 -28 -17t-36 -19.5t-34 -6.5q-81 0 -201 49q-107 49 -168 162q-54 95 -60 192q-1 16 -4.5 61.5t-3.5 69.5q0 45 8 127q8 64 25 138q11 37 29.5 136t38.5 152 l75 189q8 21 19 47q35 73 41 82q51 68 110 90q62 23 166 31zM797 872q0 13 -4 33q-16 112 -17 125q-2 70 -51 193q-22 44 -29 51q-11 11 -28 53q0 1 -6 29l-2 7q-3 7 -5 9q-10 7 -32 26.5t-39.5 32t-36.5 19.5q-70 27 -115 -12q-17 -13 -43 -52q-42 -66 -45 -157v-61t-4 -76 q-2 -16 -4 -46.5t-4 -46.5q-3 -25 -10.5 -74t-10.5 -73q-9 -50 -12 -96q-8 -92 -10 -131q-1 -10 -2 -31t-2 -31q0 -65 2 -78q4 -22 0 -90v-28q8 -51 14 -80q11 -53 49 -97q43 -52 115 -65q41 -7 63 12q31 31 50 58q22 30 47 79q60 106 77 172q16 61 39 113q9 24 15 51.5 t12 62t10 52.5q1 3 1 10t1 10q4 44 8 72q1 10 4.5 29t4.5 26z" />
<glyph unicode="1" horiz-adv-x="493" d="M301 70q5 -1 18.5 -4t20.5 -3h96q6 0 10 -2q32 -3 35 -26q2 -11 -4 -17t-26 -12q-33 -7 -60 -10q-74 -4 -108 -4q-19 0 -59 1t-60 1q-25 2 -70 2q-1 0 -3 -1t-3 -1q-18 0 -20 12q-6 17 10 21q18 7 50.5 17.5t37.5 12.5q4 1 12 2t12 2q11 27 3 74q-4 41 -6 87t-3 101 t-2 87q0 17 3 50t3 38q0 71 -2 106q-2 62 11 211v66q4 232 8 346q1 34 7 95t7 81v29q-14 -7 -16 -9q-11 -10 -24.5 -17t-34.5 -14t-27 -10q-8 -3 -64 -20q-21 -8 -28 6q-10 19 10 33q12 8 47 26q66 34 149 99q29 23 82 37q13 3 31 -4q45 -15 21 -58q-16 -29 -7 -59 q11 -25 11 -70q4 -44 8 -72q2 -16 3 -33.5t1.5 -39t1.5 -33.5t2.5 -32.5t2.5 -37t1 -32.5q1 -12 1 -35.5t1 -36.5q4 -86 6 -131q0 -4 1 -11.5t1 -11.5q-4 -74 -2 -110q3 -35 3.5 -72.5t-0.5 -88.5t-1 -71q0 -24 -2.5 -49t-7.5 -60.5t-6 -47.5q-10 -65 -14 -80q-2 -9 -29 -82 q-20 -57 -23 -70q-1 -4 -16 -65z" />
<glyph unicode="2" horiz-adv-x="794" d="M236 82q6 -1 13.5 -2.5l10 -2t8.5 0.5q21 3 68.5 11t71.5 11q42 6 79 9q129 6 131 6q16 0 49 -3t50 -3q37 0 55 -41q6 -12 12 -27q-4 -1 -23 -7t-28 -7q-22 -1 -63.5 -2t-63.5 -2q-28 0 -55 6q-50 7 -125 -4q-48 -6 -144.5 -18.5t-144.5 -18.5q-6 -1 -18.5 -4t-18.5 -4 q-26 -5 -48 9t-29 40q-15 43 10 114q5 14 13 41t13 41q26 67 52 123q9 23 30 65t25 52q8 12 12 20q3 4 8.5 12.5t8.5 12.5q1 2 3 7t3 7q9 8 16.5 17t14 21.5t9.5 20.5t9 24.5t8 21.5q12 38 61 116q120 198 158 340q27 106 25 164q0 89 -33 142q-44 65 -119 53 q-55 -10 -112 -51q-45 -27 -93 -72q-31 -28 -51 -70q-3 -5 -5.5 -9.5t-7 -8t-7 -6.5t-8 -6t-8 -4.5t-9 -4.5t-8 -3.5t-9.5 -3.5t-9 -3q-9 -3 -18 5.5t-9 19.5q4 63 22 92q70 114 199 182q45 21 109 31q122 14 209 -6q49 -10 86 -39q41 -33 57 -72q47 -99 53 -217 q0 -14 1 -42t1 -42q4 -37 -6 -59q-2 -7 -2.5 -20.5t-1.5 -18.5v-23q-33 -101 -43 -127q-4 -13 -25 -55q-5 -9 -14 -26.5t-14 -26.5t-16.5 -26.5t-16.5 -26.5q-4 -8 -4 -13q2 -18 -15 -39q-4 -6 -10 -21.5t-10 -21.5q-69 -126 -94 -170q-2 -3 -8 -9.5t-9 -10.5 q-14 -19 -16 -27q-4 -18 -13 -34t-24 -38t-20 -30q-4 -6 -16 -28t-19 -32q-9 -14 -30 -42.5t-30 -43.5q-6 -6 -6 -8q-1 -7 -4.5 -14.5t-6 -11.5t-11 -14t-12.5 -15z" />
<glyph unicode="3" horiz-adv-x="917" d="M625 901q34 -17 59 -27q81 -41 131 -94q13 -14 24.5 -30t25.5 -37.5t22 -32.5v-2q1 -5 11 -42t9 -58v-25q1 -26 2 -36.5t-3 -36t-6 -36t-7.5 -36t-7.5 -35.5q-10 -65 -27 -119q-34 -99 -57 -139q-13 -18 -17 -27q-19 -47 -77 -68q-88 -37 -172 -51q-194 -37 -345 60 q-54 34 -84 61q-108 96 -92 254q2 28 23 90q16 54 67 72q12 7 37 -10q14 -12 4 -29q-11 -28 -24 -47q-39 -55 -15 -137q21 -73 103 -131q37 -23 86 -33q113 -24 221 20q3 2 9.5 6.5t9.5 6.5q77 65 104 110q20 31 53 103q51 120 39 260q-10 96 -74 157q-44 41 -102 47 q-46 6 -143 -2q-19 -1 -25.5 -0.5t-26 4.5t-26.5 5q-3 0 -33 10q-18 4 -29 10q-5 3 -6.5 7t-2.5 12t-1 10q-5 16 -3.5 25t5.5 12.5t19 11.5q4 2 12 5t14 6t10 7q37 19 48 31q19 24 63 51q83 52 109 158q10 43 14 135q1 36 -14.5 64t-46.5 59q-6 6 -19 10q-64 16 -92 13 q-20 -3 -41 0q-35 8 -72 -15q-8 -4 -33.5 -16.5t-39.5 -20.5q-4 -2 -66 -51q-4 -4 -7.5 -9.5t-8 -13.5t-7.5 -12q-14 -14 -22 -18q-15 -8 -29 2t-10 27q7 36 23 57q46 71 120 117q106 62 205 73q98 9 191 -26q46 -17 73 -66q42 -68 58 -149q3 -13 6 -36.5t4 -31.5v-4 q-8 -32 -9 -93.5t-5 -88.5q-4 -18 -13.5 -53t-11.5 -41q-6 -23 -31 -58t-30 -45z" />
<glyph unicode="4" horiz-adv-x="817" d="M205 694q29 3 79.5 10t65.5 9q29 3 87 10t87 10q19 3 22.5 6.5t6.5 22.5q7 35 20.5 104.5t20.5 104.5q23 103 39 168q20 67 20 141q0 31 31 25q48 -11 74 -62q29 -55 37 -172q5 -44 -2 -106q-1 -4 0 -13.5t0 -13.5q0 -20 -5 -113q0 -9 -2.5 -51.5t0.5 -52.5q1 -6 -10 -59 q-9 -62 -16 -87q-2 -7 -27 -65q-4 -8 -6 -14q-17 -56 -20 -64q-31 -92 -35 -266l-6 -111q0 -7 -9 -16q-13 -7 -19.5 -19.5t-8 -21t-2.5 -27.5q0 -17 -4 -49q-29 -6 -58 23q-19 23 -26 69q-1 9 -4 51t-7 64q-8 66 -12 199q-4 43 6 219q0 6 1 13t2.5 15t2.5 13q0 1 3 22t4 33 q-36 0 -50 -2q-15 -2 -42.5 -5t-50 -6t-42.5 -7q-16 -2 -46.5 -9.5t-45.5 -9.5q-3 0 -96 -6q-10 -1 -33 -2t-35 -2q-25 15 -31 33q0 6 -10 6q-11 3 -14 16q-3 8 -10 19q-14 14 -23 26q-12 24 0 49q12 24 74 150q7 16 29.5 64t33.5 75q28 66 45 101q12 24 36.5 72t37.5 73 q31 63 64 141q6 12 18 35.5t18 36.5q5 12 15 33t12 26q5 14 17 29q16 20 30 -4q17 -27 17 -53q-1 -17 -3.5 -55.5t-3.5 -59.5v-4q11 -22 0.5 -82t-8.5 -80q2 -5 -2 -14q-6 -33 -28 -127q-10 -30 -27 -70q-10 -24 -31 -72t-31 -73q-2 -4 -6 -8q-8 -15 -30.5 -51.5 t-32.5 -57.5q-22 -40 -35 -51q-3 -2 -4.5 -5t-3 -9t-2.5 -9z" />
<glyph unicode="5" horiz-adv-x="1013" d="M86 440q2 -9 6 -26.5t6 -26.5q4 -16 4 -22q-3 -56 25 -107q23 -45 25 -49q1 -5 12 -21q3 -3 10.5 -9t12.5 -11t8 -10q27 -43 100 -47q112 -4 180 10q62 14 96 41q75 54 107 117q45 85 59 141q18 78 23 131q1 14 -8 67q-23 89 -39 146q-16 60 -66 86q-62 32 -82 41 q-36 13 -69 10q-83 -7 -138 -22q-77 -26 -118 -54q-12 -10 -29 -30q-16 5 -23 12q-13 10 -19 8.5t-13 -18.5q-1 -1 -3 -2t-3 -2q-1 1 -6 4.5t-7 7.5q-4 6 -13.5 21.5t-17.5 25.5t-18 18q-8 5 -8 27q3 27 29 188q2 12 24 132q4 17 10.5 51t10.5 51q6 29 22 57q15 25 49 21 q31 0 60 -13q49 -18 131 -26q80 -13 149 4q112 22 170 68q1 1 10 6q3 0 9 2q6 -10 20 -31q-5 -6 -14.5 -18.5t-14.5 -18.5q-1 -2 -4 -7t-4 -7q-2 -2 -4 -7.5t-4 -7.5q-47 -50 -106 -61q-118 -21 -207 -8q-21 3 -107 28q-2 0 -8.5 2t-11.5 3q4 -10 7.5 -20.5t7 -22t5.5 -17.5 q8 -16 8 -31q10 -61 13 -108q3 -46 -15 -92q-3 -8 -5.5 -18t-5.5 -23t-5 -21q4 1 10.5 2t9.5 2q89 29 216 19q73 -3 157 -29q51 -16 119 -69q34 -25 70 -70q46 -57 57 -98q2 -8 14.5 -45.5t16.5 -57.5q13 -68 10 -94q0 -12 2 -18q0 -21 -8 -29q-5 -7 -10 -27 q-16 -73 -27 -131q0 -4 -2 -6q-5 -11 -16 -41.5t-22.5 -50.5t-29.5 -35q-9 -7 -28 -19t-27 -18q-23 -15 -33 -28q-22 -32 -73 -66q-62 -38 -101 -51q-44 -18 -106 -31q-102 -27 -260 6q-155 39 -211 183q-33 87 -23 186q1 11 4.5 23.5t7 20.5t10.5 22.5t9 19.5q19 31 51 18z " />
<glyph unicode="6" horiz-adv-x="968" d="M377 922q17 4 45 10t35 8q56 17 141 2q80 -13 141 -47q46 -21 101 -80q3 -3 8 -10t8 -10q7 -5 12.5 -10t10 -13.5t6.5 -12.5t6.5 -15.5t5.5 -14.5q39 -91 43 -233q0 -50 -25 -148q-4 -19 -11.5 -35t-26 -41t-21.5 -30q-36 -53 -70 -76q-5 -4 -9.5 -10.5t-9.5 -15 t-7 -11.5q-19 -34 -58 -59q-16 -11 -47.5 -28t-42.5 -24q-28 -18 -86 -18h-123q-64 -3 -145 25q-51 16 -82 53q-10 13 -35 33q-60 47 -88 143q-34 112 -24 268q3 60 12 115q4 24 14 68.5t11 50.5q34 127 98 272q44 103 67 139q14 22 53 85.5t62 95.5q18 25 80 92q6 7 32 32 t38 41t39 35.5t34 26.5q1 1 11 6q21 7 32 -4q14 -14 4 -35q-10 -25 -16 -31q-17 -17 -30 -37.5t-28 -50.5t-22 -41q-32 -51 -51 -86q-26 -46 -33 -84q-3 -14 -11 -42t-11 -42q-4 -20 -18 -58t-17 -58q-3 -13 -3.5 -27t0.5 -34.5t1 -28.5zM764 592q-16 100 -19 113 q-15 65 -63 110q-49 40 -107 55q-32 10 -73 7q-6 -1 -29 -4.5t-35 -6.5q-14 -4 -40.5 -14t-39.5 -14q-13 -8 -16 -25q-10 -79 -14 -96q-5 -17 -17.5 -52t-17.5 -53q-27 -79 -29 -127q-1 -17 -2 -52t-2 -52q0 -41 -4 -119q0 -57 51 -90q96 -63 228 -6q17 8 35 19t41 26t34 22 q7 7 19 23q11 14 19.5 30t18.5 42t13 34q15 34 25.5 76.5t14.5 71.5t9 82z" />
<glyph unicode="7" horiz-adv-x="894" d="M170 -68q-5 -20 -25 -8q-14 14 -16 21q-6 12 -10 39q-12 117 6 231q2 17 6.5 71t9.5 83q21 187 72 311q6 16 18.5 45t18.5 45q1 2 2 7t2 7q-21 3 -57 10t-50 9q-10 1 -31.5 3t-31.5 3q-36 3 -53 31q-16 25 10 30q60 18 102 23q52 4 156 8l117 234q69 134 114 198 q10 15 30 44.5t30 43.5q7 9 21.5 27t19.5 25q-19 2 -25 2.5t-23 -4t-22 -5.5q-15 -2 -49 -8.5t-60 -10t-51 -3.5q-38 0 -120 -4q-5 0 -23 6q-16 4 -88 24q-70 17 -98 35q-22 13 -17 29t31 16q141 0 211 -2q59 -2 190 19q77 12 158 30q62 12 88 31q4 2 15 2q17 -1 71 -10 q26 -3 44.5 -21.5t21.5 -44.5q2 -5 -2 -16q-8 -21 -26 -62t-26 -61q-2 -6 -9 -27.5t-13 -31.5q-9 -20 -27.5 -54.5t-25.5 -50.5q-7 -18 -27 -53.5t-27 -56.5q-13 -35 -40 -74q-1 -2 -19 -37q-4 -11 -16 -36t-17 -40q-4 -10 -12.5 -30t-13.5 -31q20 -4 22 -4q14 -1 43.5 -2 t44.5 -2q11 -1 80 -11q25 -6 29.5 -11.5t5.5 -33.5q-52 -8 -80 -16q-29 -7 -125 -16q-11 0 -32.5 -4t-28.5 -5q-20 -3 -27 -26q-7 -33 -37 -80q-16 -26 -35 -70q-6 -12 -8 -14q-27 -31 -37 -78q-3 -17 -8 -26q-24 -57 -41 -138q-1 -6 -5 -18.5t-5 -18.5q-3 -10 -8 -30.5 t-8 -30.5q-1 -5 -4.5 -15.5t-4.5 -15.5q-1 -2 -3.5 -8t-2.5 -8q-4 -54 -22 -74q-1 -1 -1 -5t1 -5q2 -20 0.5 -27.5t-9.5 -25t-10 -25.5q-4 -4 -4 -8q0 -9 -2.5 -18.5t-4 -15.5t-6.5 -17t-6 -14t-8 -16.5t-8 -14.5q-11 -18 -19.5 -21.5t-29.5 4.5q-1 0 -2 0.5t-3.5 1.5 t-4.5 2z" />
<glyph unicode="8" horiz-adv-x="1073" d="M774 831q3 -6 4 -6q29 -33 88 -141q6 -11 21 -61q3 -8 8 -26.5t8 -27.5q0 -1 2 -3t2 -3q-3 -19 13 -47t16 -43q0 -8 3.5 -23.5t4.5 -19.5q8 -90 10 -135q0 -17 -8 -45q-13 -58 -20 -82q-10 -25 -13 -29q-6 -11 -14 -22t-17.5 -24t-15.5 -21q-7 -10 -16 -19.5t-21 -20 t-18 -16.5q-38 -36 -94 -61q-20 -9 -60 -20.5t-57 -18.5q-67 -25 -186 -14q-47 4 -131 41q-75 36 -144 92q-93 75 -114 192q-11 48 -13 80q-8 96 41 203q20 45 58 65q8 6 26 29q7 12 21.5 34.5t21.5 33.5q4 7 10 14t10 12t12 12.5t11.5 10t14 11.5t12.5 11q10 8 51 54 q13 13 23 18q2 2 82 51q-32 40 -46 60q-65 84 -86 145q-21 52 -24 109q-6 60 -6 61q3 89 35 154q103 211 327 254q170 31 312 -62q42 -26 67 -78q24 -42 43 -125q6 -27 6 -57q4 -83 -2 -127q-3 -20 -7.5 -38t-14 -40t-14 -32.5t-18.5 -38t-17 -33.5q-8 -17 -29 -27 q-26 -8 -43 -39q-21 -41 -86 -98q-4 -3 -29 -23zM434 838q-12 -5 -20 -13q-7 -7 -46 -44.5t-57 -61.5q-20 -23 -20 -47q0 -9 -8 -25q-7 -15 -20.5 -42t-20.5 -42q-2 -2 -2 -6q-1 -10 -13 -35t-10 -41q-5 -5 -8 -12t-3.5 -11.5t-1.5 -14.5t-1 -13q-6 -40 -6 -41 q-17 -63 10 -131q25 -74 90 -113q77 -48 115 -53q43 -6 129 -10q35 -3 65 31q5 6 33 34q33 42 37 78q9 97 -17 197q-22 82 -55 153q-39 81 -92 164q-12 19 -78 99zM729 866q3 3 15 14t15.5 14.5l13 13t14 15t10.5 14.5t10 17q42 71 78 154q20 45 35 131q3 23 -7 47 q-7 19 -23 53.5t-20 44.5q-27 64 -94 91q-3 1 -8 4t-8 4q-59 32 -117 8q-99 -45 -160 -121q-44 -54 -28 -115q2 -10 2 -61q1 -5 2 -15.5t2 -15.5q4 -13 10.5 -24t21 -27t15.5 -18q62 -72 115 -125q24 -25 106 -103zM281 664q0 4 -5 4q-3 -6 -10 -13l4 -2z" />
<glyph unicode="9" horiz-adv-x="802" d="M608 934q-13 -13 -33.5 -34t-36 -36.5t-30.5 -29.5q-77 -69 -154 -72q-53 -3 -96 16q-24 7 -43 15q-55 18 -111 67q-46 43 -71 111q-52 133 -21 276q15 77 33 121q18 43 61 100l5 5q18 7 44.5 29.5t39.5 29.5q4 2 20 14t27.5 16.5t25.5 4.5q7 0 17 10q26 21 98 33 q1 0 13 2t18 4q64 17 133 14q12 0 24.5 -3t27 -8t22.5 -7q1 -1 4 -3t4 -3q29 -37 33 -62q3 -17 -6 -23.5t-23 -0.5q-14 5 -33 20q-16 19 -39 19q-4 0 -24.5 -1t-27 -1t-24 -1.5t-27 -3.5t-23 -5.5t-25.5 -8.5q-17 -7 -48 -23t-36 -18q-9 -16 -37 -39.5t-37 -40.5 q-18 -31 -16 -43q0 -2 -5 -12q-26 -28 -38 -102q-15 -69 -15 -109q1 -11 0.5 -31t0.5 -36t5 -31q10 -47 39 -115q19 -43 60 -57q6 -2 18 -7.5t18 -7.5q92 -34 173 31q15 11 28.5 23.5t34.5 34.5t27 28q32 32 22 92q-8 64 -10 103q-6 62 -6 127q0 57 20 110q2 4 4 13.5 t4 13.5q15 20 38 16.5t34 -26.5q3 -6 19.5 -40t23.5 -53q11 -27 17 -63q2 -11 6 -34t6 -34q1 -8 4.5 -26.5t5 -32t0.5 -27.5l-2 -6q9 -16 8.5 -45t3.5 -45q2 -3 2 -18q0 -8 1 -23.5t1 -23.5v-27q0 -9 -1.5 -27t-1 -32t4.5 -27q1 -3 1 -6.5t-0.5 -8t-0.5 -6.5v-34 q0 -73 -2 -86q-4 -18 -4 -52q0 -5 0.5 -17t0.5 -18.5t-1.5 -16.5t-5.5 -19q-7 -22 0 -37q2 -2 2 -8q-3 0 -2 -37l2 -37q0 -32 -6 -59q-6 -24 -10 -68q0 -42 -25 -127q-33 -95 -112 -162q-46 -41 -117 -72q-33 -16 -80 -16q-144 -3 -250 51q-83 44 -125 154q-14 39 -18 119 q-1 15 8.5 22t24.5 2q18 -6 26 -24q33 -84 86 -140q54 -54 137 -57h43q134 -3 217 127q27 44 54 135q2 5 2 31q-15 242 -17 305q-2 0 -1 49l1 49q-3 70 -6 150zM455 821q2 -2 2 -4q29 4 39 27q-3 -2 -18.5 -10t-22.5 -13z" />
<glyph unicode="@" horiz-adv-x="1288" d="M993 145q-5 -10 -18 -20q5 -18 6 -21q-69 -85 -211 -92q9 -7 14 -14q-110 5 -114 6q-129 18 -250 74q-94 43 -170 119q-57 57 -107 133q-31 51 -63 127q-50 110 -53 258q-3 111 22 229q7 37 29 90q4 12 16 44t17 52q5 16 22.5 40t22.5 36q8 12 20 25q8 9 20.5 25.5t24 30 t23.5 24.5q12 10 50 44.5t60 51.5q23 18 65.5 48t51.5 36q25 22 96 43q75 22 127 22q66 0 131 -12q12 -3 44 -9.5t51 -12.5q10 -3 21 -7.5t18.5 -8.5t20.5 -11t19 -10q32 -11 66 -35q19 -15 22 -18q65 -58 89 -111q0 -2 1.5 -4.5t4 -6.5t4.5 -7q3 -4 8 -13.5t8 -13.5 q14 -20 23 -76q2 -4 6 -16q22 -46 26 -115q2 -14 7 -39t6 -33q4 -16 4 -26q3 -35 -6 -140q-9 -64 -33 -133q-2 -5 -25 -45q-2 -2 -2 -4q-13 -26 -34 -53t-35.5 -41t-44.5 -43q-21 -21 -35 -31q-45 -38 -131 -49q-14 -3 -51 6q-14 5 -39 16.5t-39 16.5q-63 23 -86 92l-17 51 l-16 -16q-33 -29 -66 -29q-72 0 -131 33q-45 23 -75 45q-58 42 -72 125q-10 73 0 125q35 136 121 205q16 12 47 43q14 15 34 26t32 14.5t40 10.5q37 3 64 -6q13 -6 36.5 -12t32.5 -9q15 -4 25 -14q27 -31 37 -47q6 -8 10 -33q0 -11 -6.5 -15.5t-15.5 1.5q-6 4 -50 37 q-4 3 -9.5 10.5t-8.5 9.5q-6 9 -16 11.5t-19 -3.5q-5 -3 -27.5 -14t-33.5 -20q-7 -7 -27 -19q-40 -23 -55 -92q-5 -21 -23 -47q-28 -42 -32 -123q-3 -40 8 -78q15 -37 60.5 -49.5t80.5 21.5q0 2 4 6q52 46 55 116q1 21 5.5 47t8 38l14 48t11.5 39q7 26 31 29q20 4 27 4 q51 3 61 -45q3 -13 11.5 -36t11.5 -36q6 -20 6 -65q0 -22 -4.5 -63t-5.5 -58q-1 -9 -1 -19t0.5 -23t0.5 -21v-66q3 -39 36 -55q47 -19 93 10q88 59 133 162q54 120 51 254q0 63 -27 139q-3 7 -7 22.5t-7 22.5q-13 41 -29 74q-8 21 -18 33q-36 54 -39 59q-18 25 -19 25 q-13 10 -38.5 31t-38.5 30q-47 26 -101 35q-11 1 -31 4t-28 4q-24 6 -47 6q-29 0 -39 -12q-8 -7 -37 -19q-14 -7 -45 -18t-45 -18q-55 -19 -80 -39q-11 -8 -24 -16.5t-29 -19t-25 -16.5q-32 -28 -47 -43q-3 -2 -7 -7.5t-5 -6.5q-2 -3 -9 -10.5t-10 -11.5q-49 -63 -55 -72 q-3 -4 -4 -15.5t-4 -15.5q-11 -16 -18 -34t-13.5 -45t-9.5 -36q-5 -24 -8 -32q-16 -47 -19 -88q-2 -23 -14 -88v-9q9 -58 10 -77q2 -2 2 -11q0 -43 25 -102q7 -16 20 -59q5 -22 15.5 -43.5t27.5 -49t23 -39.5q34 -54 96 -116q11 -16 33 -31q77 -50 104 -66q4 -2 32.5 -15 t43.5 -21q12 -5 29 -15q20 -13 55 -16q10 0 54.5 -2.5t54 -2t53.5 2.5q58 8 78 20q5 3 22 9z" />
<glyph unicode="A" horiz-adv-x="1615" d="M528 655q-10 5 -21 8t-26.5 4.5t-21.5 2.5q-11 3 -45 8q-4 0 -18.5 2.5t-19 2.5t-18.5 -1q-3 -1 -10 0.5t-10 1.5q-12 4 -14 12q0 16 10 19q52 18 65 22q62 12 160 8h12q18 40 33 70q3 8 41 92q10 21 21 49q37 67 53 103q8 18 24.5 53.5t24.5 52.5q10 24 20 41 q13 23 37 69t37 68q15 27 27 54q27 55 102 119q6 6 15 12q12 8 22 8q25 2 72 2q6 1 17 2t16 2q11 3 20 -10q32 -62 29 -123q-3 -1 -1.5 -48t1.5 -48v-35v-14q4 -11 4 -23.5t-2 -26.5t-2 -22q1 -6 -4 -27q0 -41 2 -59q6 -67 0 -131q-2 -16 -3 -33.5t-1.5 -38.5t-1.5 -33 q-1 -27 -11 -159q0 -12 -10 -62q0 -14 -2 -22q21 0 62 9t63 7q8 -15 10 -25q-10 -27 -37 -24q-4 0 -12 -4q-43 -22 -47 -23q-4 -2 -14 -2q-35 6 -43 -26q-17 -72 -25 -123q-18 -111 -33 -219q-3 -28 -10 -83.5t-10 -82.5q-1 -8 0.5 -24.5t1.5 -20.5q5 -113 4 -136 q0 -65 57 -110q30 -21 49 4q3 4 13.5 17.5t15.5 21.5q68 103 107 182q0 2 2 6t2 6q3 18 19.5 48.5t19.5 37.5q7 15 26.5 48.5t26.5 48.5q4 8 11 24.5t11 24.5q32 64 115.5 225.5t87.5 161.5q14 17 26.5 21.5t19 -0.5t7.5 -15q-1 -1 -28.5 -57.5t-59.5 -123t-63 -129 t-39 -77.5q-8 -16 -21.5 -44.5t-15.5 -33.5l-12 -24q-7 -10 -19 -32t-16 -28q-43 -75 -55 -96q-24 -42 -33 -55q-14 -20 -35 -60.5t-31 -56.5q-6 -9 -28 -46.5t-37 -55.5q-22 -32 -64 -62q-21 -16 -57 -8q-62 9 -96 55q-48 59 -72 152q-38 124 -27 311q4 77 29 260 q6 53 14 152v18q-17 5 -72.5 19t-84.5 22q-117 37 -156 41q-18 -26 -23 -39q-5 -12 -28 -69q-2 -3 -6 -9.5t-6 -9.5q-1 -2 -7 -8q-5 -17 -17 -44.5t-15 -35.5q-1 -1 -2 -4t-2 -4q-11 -13 -23 -41t-20 -39q-1 -1 -2.5 -3t-2.5 -3q-5 -11 -19.5 -41.5t-21.5 -46.5 q-8 -20 -19.5 -39.5t-29 -44t-24.5 -35.5q-34 -52 -78 -90q-23 -23 -47 -41q-34 -24 -68 -6q-11 6 -31.5 13.5t-27.5 10.5q-68 28 -80 97q-17 88 6 190q9 43 45 102q20 25 37 60q15 24 39 33q45 14 76 12q6 -17 5 -22t-13 -17q-2 -3 -6.5 -9t-6.5 -9q-2 -4 -15.5 -25.5 t-19.5 -32.5l-12 -18q-7 -22 -20.5 -62t-18.5 -57q-4 -17 -2 -29q2 -27 10 -86q6 -35 33.5 -55.5t63.5 -17.5q16 3 28 12q22 19 45 49q27 35 53.5 83t39.5 75.5t41 89.5q23 45 24 49q46 101 78 176q7 14 20 53zM1032 1444q-25 -7 -33 -21q-30 -54 -32 -57q-9 -19 -30 -55.5 t-24 -42.5q-27 -39 -53 -107q-10 -25 -29 -63q-8 -15 -26.5 -44.5t-26.5 -43.5q-14 -26 -37 -74t-32 -66q-6 -11 -25.5 -46.5t-28.5 -55.5q-5 -8 -14 -31q128 -37 283 -78q0 7 4 11q2 20 7 55t7 51q5 40 31 271q3 21 8 65t8 66q5 30 15.5 88.5t15.5 87.5q1 5 12 90z" />
<glyph unicode="B" horiz-adv-x="1742" d="M1753 633q25 0 29 -4t4 -29q-86 -73 -115 -113q-19 -24 -29 -36t-29.5 -28.5t-39.5 -23.5q-8 -4 -10 -8q-13 -8 -36.5 -25.5t-35.5 -25.5q-23 -20 -18 -51q12 -87 0 -170q-2 -6 -7 -43q0 -22 -10 -25q-1 0 -6 -16q-3 -8 -12.5 -36t-16.5 -46t-16 -35q-9 -16 -29 -43.5 t-26 -36.5q-2 -3 -6 -10t-7.5 -13.5t-7.5 -11.5q-28 -45 -90 -86q-38 -26 -78 -63q-38 -35 -82 -49q-7 -2 -22 -7.5t-23.5 -8t-21 -5t-23.5 -2.5q-6 0 -14 -4q-8 -6 -19 -9.5t-26.5 -6t-22.5 -4.5q-15 -6 -35 2q-56 17 -100 22q-46 8 -67 25q-11 11 -13 16q-24 147 51 236 q72 83 179 151q79 49 274 174q1 0 3 2t3 2q37 12 33 64q-4 158 -45 266q-34 93 -98 193q-14 27 -56 45q-103 49 -188 67q-62 15 -123 15q-13 0 -40 -4.5t-42 -4.5q-47 0 -70 -2q-2 0 -49 -12q-3 -2 -8 -16q-4 -11 -8 -41q-1 -32 0 -97.5t-1 -154.5t-7 -125q-3 -20 0 -41 q8 -60 -2 -135q-4 -17 -2 -25q10 -44 -4 -102q-1 -5 -2 -11.5t-2.5 -13.5t-2.5 -10q0 -22 -16 -25q-1 0 -20 13q-1 0 -3.5 1t-3.5 1q-2 -2 -18.5 3.5t-34 19t-20.5 30.5q-19 111 -9 170q2 9 7 31t7.5 38t0.5 31q-21 174 -34.5 525.5t-6.5 398.5q0 2 1 6t1 6q-1 33 12 93 t14 67q3 15 3 31q37 20 82 9.5t73 -44.5q15 -20 19 -57q0 -17 6 -35q19 -102 8 -191q-6 -44 -13.5 -126.5t-9.5 -100.5q-1 -8 -3 -23.5t-3 -23.5q1 -1 3 -2l3 -1.5t2 -0.5q15 2 42.5 4.5t50 5.5t41.5 8q87 24 176 99q29 25 51 81q5 17 6 17q24 30 31 82q3 26 12 49 q12 31 19 76q6 78 -31 145q-46 74 -127 98q-14 3 -41 10t-49.5 12t-42.5 9q-61 12 -164 19q-47 6 -92 6q-58 -5 -76 -9q-89 -26 -139 -63q-44 -32 -62 -66q-4 -10 -23 -46t-26 -56q-24 -65 -4 -106q2 -3 8 -31q15 -43 53 -66q5 -2 23 -16q-25 -22 -49 -4q-54 41 -78 90 q-6 11 -31 74q-2 4 -2 14q10 182 127 268q115 86 254 123q72 20 201 31q35 2 108 -2q21 -1 60.5 -6t46.5 -6q104 -11 203 -78q66 -41 108 -107q3 -5 17.5 -27.5t21.5 -35.5q4 -11 8 -33q5 -57 4 -68q-3 -13 -3 -27.5t1.5 -33.5t1.5 -29q0 -55 -39 -151q-7 -18 -25 -49 t-22 -39q-47 -80 -108 -127q-6 -6 -12 -15q6 -4 14 -8q128 -51 133 -53q100 -36 188 -150q62 -79 80 -118q7 -15 37 -93q4 -10 12.5 -29.5t12.5 -29.5q12 -27 24 -57q8 3 19 10q7 6 34 28t39 32t31 29t33 36q7 8 39 35q62 52 96 90zM1192 -10q29 66 31 114l-6 5 q-3 -2 -41 -23t-56 -33q-61 -40 -137 -96q-19 -12 -56 -36t-55 -36q-10 -7 -29.5 -22.5t-29.5 -22.5q-38 -32 -41 -86q-3 -20 6 -80q0 -1 1 -4t1 -4q11 -18 35 -27.5t47 -3.5q39 9 92 35q84 45 138 131q2 5 12.5 25t17.5 31q42 66 70 133z" />
<glyph unicode="C" horiz-adv-x="1153" d="M860 1001q-4 1 -9 2.5t-12.5 4.5t-11.5 4q-5 3 -10 12q-2 3 -6.5 12.5t-7.5 16.5q25 47 41 157q5 50 -8 109q-6 27 -26.5 37t-45 4.5t-47.5 -17.5t-39 -26q-30 -28 -66 -98q-66 -122 -106 -220q-6 -14 -29.5 -73.5t-38.5 -91.5q-39 -99 -55 -160q-9 -38 -29.5 -107.5 t-34.5 -126.5t-22 -110q-11 -78 -16 -133q-2 -34 1.5 -95.5t2.5 -89.5q0 -39 22 -68t60 -36q102 -16 186 22q19 8 38.5 21t32 23.5t33.5 28.5t31 26q23 19 48.5 43t41.5 41.5t44.5 49t41.5 44.5q97 100 140 180q81 138 112 188q4 12 12 17q24 15 74 22q-2 -8 -2 -18 q-1 -1 -3 -4t-3 -5.5t0 -4.5q0 -10 1 -14.5t-2.5 -13t-5.5 -12t-6.5 -11.5t-6.5 -11q-3 -6 -37 -57q-17 -26 -72.5 -120.5t-93.5 -139.5q-285 -328 -576 -447q-83 -33 -174 -18q-41 8 -82 41q-80 61 -100 186q-11 66 -12 138t4 132t18.5 138.5t25 130.5t31.5 135 q35 151 70 252q50 145 103 245.5t139 180.5q82 76 194 106q156 43 236 33q70 -8 94 -88q2 -8 8 -59q4 -40 4 -62q0 -17 -8 -57q-2 -8 -6.5 -29.5t-7.5 -32.5t-9.5 -27.5t-15.5 -29.5q-2 -3 -6 -10t-6 -10q-16 -25 -35 -50z" />
<glyph unicode="D" horiz-adv-x="1222" d="M-123 1343q70 60 121 89q69 39 215 75q89 24 180 21q66 -4 92.5 -6.5t77 -13.5t88.5 -29q13 -6 36 -19.5t36 -19.5q30 -18 33 -19q54 -19 147 -112q57 -57 98 -144q79 -164 82 -344q0 -104 -18 -203q-47 -256 -217 -459.5t-414 -273.5q-75 -20 -149.5 -21t-146 23 t-130.5 63.5t-103 101.5t-63 138q-17 74 -4 158q1 10 3 21t5 24t4 21q18 68 84 102q3 -2 23 -12q-16 -24 -23 -31q-22 -22 -26 -72q-4 -25 -2 -39q0 -122 65 -233q61 -100 248 -129q33 -5 65 0.5t63 22.5t53 32.5t54 40.5q13 10 19 15q79 59 134 109t107 114.5t82.5 140.5 t41.5 164q15 135 18 272q0 96 -31 170q-45 119 -67 158q-38 62 -94 104q-82 62 -162 93q-64 24 -135 24q-2 0 -6.5 -1t-6.5 -1q-1 0 -2.5 -1.5t-3.5 -2.5q7 -25 14 -41q31 -79 33 -127q8 -122 4 -184q-2 -28 -11 -82t-11 -80q-6 -79 -25 -168q-29 -134 -41 -223 q-5 -34 -8 -102t-8 -101q-7 -60 -2 -100q3 -50 -14 -111q-1 -4 -3 -4q-14 -13 -25 -51t-24 -51q-13 -9 -23 -10t-19 10.5t-16 24t-12.5 30.5t-8.5 30.5t-5 22.5q-20 106 -20 225q0 141 6 285q3 146 12 289q3 56 23 313q2 28 8 84.5t8 85.5v15q-48 -11 -49 -11 q-35 -11 -86 -34q-1 -1 -5.5 -4t-6.5 -3q-9 -3 -18 -7.5t-15.5 -8.5t-16 -11t-13.5 -10.5t-15 -13t-14 -12.5q-9 -9 -15 -6q-33 3 -49 30z" />
<glyph unicode="E" horiz-adv-x="1101" d="M1096 635q35 9 55 -4l-6 -18q-6 -18 -17 -49.5t-26.5 -72.5t-37.5 -92t-47.5 -103t-59.5 -110.5t-70 -109.5q-61 -84 -125 -148q-117 -118 -276.5 -141t-305.5 55q-128 66 -178 176q-53 115 -61 230q-5 79 20 188q3 10 8 21t12.5 24t10.5 19q51 93 100 137q28 26 98 72 q12 6 17 6q10 -2 20 0.5t23 8t22 7.5q-4 2 -13.5 9.5t-14.5 9.5q-102 54 -162 155q-41 69 -37 176q3 125 92 242q14 19 47 57q14 14 30.5 26.5t41 28.5t33.5 23q7 5 22.5 15.5t22.5 15.5q-5 23 -22 71t-21 76q4 -1 11.5 -2t10.5 -2q43 -21 54 -43q13 -23 36 -53q29 12 33 14 q57 29 142 43q69 13 157 -22q25 -10 74 -31t74 -31q12 -4 32 -16q6 -6 7 -8q25 -45 28 -60q10 -46 -10 -77q-22 -36 -51 -62q-100 -77 -187 -90q-96 -15 -202 72q-32 28 -51 47q-10 10 -21 2q-50 -40 -72 -62q-9 -10 -24.5 -33.5t-24.5 -33.5q-62 -73 -61 -184t69 -179 q71 -71 140 -63q39 4 51 0q6 -3 22 -13.5t25 -13.5q2 -1 11 -4.5t14 -6t8.5 -8t1.5 -11.5q-6 -19 -51 -33.5t-62 -9.5q-24 8 -65 -13q-77 -41 -121 -102q-16 -22 -27.5 -49.5t-23.5 -67t-17 -53.5q-41 -121 -35 -189q18 -172 131 -243q59 -35 140.5 -43.5t146.5 14.5 q154 55 254 207q38 55 75.5 126.5t65 135.5t48.5 118.5t34.5 92t14.5 39.5zM514 1393q-9 -5 -12 -9.5t-1.5 -9.5t7.5 -12q8 -7 24.5 -22.5t24.5 -22.5q39 -28 41 -29q5 -3 10.5 -5t12 -3t10.5 -1.5t11.5 -0.5t10.5 -0.5t12 0.5t11 1t11.5 1.5t10.5 1.5q11 1 21 4.5t21 10 t16.5 10.5t18 14.5t16.5 13.5q3 2 8 11q8 28 10 38q9 18 -4 21q-73 22 -96 25q-16 3 -33 3.5t-41.5 -0.5t-34.5 -1q-26 0 -39 -15q-2 -4 -10 -8q-23 -8 -37 -16z" />
<glyph unicode="F" horiz-adv-x="1017" d="M553 -399q-32 18 -51 32q-8 8 -8 17q-5 50 -5 63q5 82 5 94q4 78 4 115q1 15 -0.5 43t-1.5 37q1 19 5 172t5 172q2 6 2 19q-8 74 4 221q1 16 1 48t1 48q0 145 8 219q4 40 4 64q-10 4 -30 8q-16 3 -50 8t-51 8q-14 2 -16.5 6.5t4.5 18.5q17 38 74 53q4 1 90 23q1 48 2 143 t2 143q-1 0 -20.5 6t-30.5 7q-140 31 -240 49q-36 7 -71.5 -10.5t-55.5 -48.5t-25 -69t19 -71q31 -52 63 -72q43 -28 89 -34q19 -4 63 -17q12 -6 13 -15.5t-11 -17.5q-5 -5 -25 -10q-1 0 -14 -2.5t-16 -3t-15 -2t-16 -1.5t-15 -1t-16.5 -0.5t-15 1t-15.5 2.5t-13 4.5 t-13 6.5q-59 32 -96 71.5t-45 96.5q-8 42 14 98q32 72 96.5 125.5t145.5 85.5q52 18 112 21h131q110 -3 230 -25q27 -5 76 -17t65 -15q79 -18 162 -15q38 0 100 15q63 11 107 79q4 6 14 25q11 15 27 10q-1 -9 1.5 -34t-1.5 -35q-10 -45 -54 -93q-20 -24 -32 -34 q-27 -20 -56 -33q-188 -63 -376 -51h-23q-2 0 -6 -4q0 -16 1 -50.5t1 -52.5q0 -10 -1 -22t-2.5 -26t-2.5 -23q-2 -20 -2 -64q0 -17 3.5 -22t20.5 -9q14 -3 43.5 -9t44.5 -9q30 -7 50 -10q32 -4 51 -4q50 -5 63 -5q0 -4 3 -22t3 -27q0 -23 -22 -28q-43 -10 -76 -13 q-54 -4 -158 -8q-17 0 -20 -3.5t-2 -22.5q2 -33 6 -103q4 -75 2 -113q-3 -57 -12 -112q-4 -23 -13.5 -66.5t-13.5 -66.5q-8 -46 -10 -66q-1 -7 -4 -18t-4 -15q-1 -2 -2.5 -5.5t-2.5 -6.5t-1 -6q0 -1 -2.5 -79t-7.5 -144t-13 -74q0 -33 -14 -61q-1 -4 -2 -22t-7 -26 q-3 -4 3 -10q12 -21 0 -39v-6q5 -21 3.5 -32t-6.5 -31t-6 -31q-1 -12 -7 -34t-7 -25q-8 -26 -29 -58q-1 -2 -32 -39q-10 -10 -25 -28z" />
<glyph unicode="G" horiz-adv-x="1122" d="M850 -315q-17 12 -19 14q-40 60 -49 82q-47 102 -53 225q-1 2 -2 8t-2 9q-13 0 -20 -15q-7 -13 -17 -20q-16 -8 -37 -33l-12 -12q-9 -4 -32 -14t-39 -15.5t-33 -9.5q-100 -23 -194.5 0.5t-164 81.5t-117 143t-61.5 182q-16 119 -12 181q10 124 41 284q42 209 155 469 q24 61 51 123q1 2 17 29q8 12 10 18q20 44 55 82q95 95 142 129q30 24 67 33q14 3 38.5 10.5t33.5 9.5q80 17 195 -4q74 -13 98 -26q62 -28 98 -62q28 -25 31 -71q2 -31 2 -93q0 -13 -4 -41q-2 -12 -6 -35.5t-6 -35.5l-2 -7q-3 -6 -5 -8q-43 -33 -59 -43q-9 -4 -15 1t-8 16 q-3 40 -6 78l-3 39t-3 40q-3 22 -22 27q-124 35 -133 37h-11q-14 -4 -45 -4.5t-47 -5.5q-8 -2 -24 -2q-55 0 -89 -37q-5 -5 -16 -15.5t-16 -15.5q-28 -22 -60 -88q-36 -72 -67 -219q-7 -33 -20.5 -98.5t-20.5 -98.5q-6 -31 -19.5 -94.5t-19.5 -95.5q-3 -22 -8.5 -66.5 t-8.5 -66.5q-17 -122 -10 -209q1 -5 2.5 -24.5l2 -26t2.5 -24.5t3 -26t3.5 -24t4.5 -25.5t4.5 -24t5.5 -25.5t7 -23.5t8 -24.5q22 -59 60 -102q24 -31 57 -37q69 -14 88 -13q10 1 22 5.5t17.5 7.5t20.5 11.5t18 10.5q60 39 86 88q9 14 35 49q16 22 12 50q0 106 2 159 q0 31 8 93q28 161 37 208q3 13 7 27t9.5 31t8.5 26q4 11 14 39q-10 12 -27 4q-45 -15 -90 -6q-6 2 -22 -2q-37 -14 -117 -18q-22 -2 -43 14t-25 39q7 1 18 4t15 4q15 2 45.5 7.5t46.5 7.5q28 4 43 4q6 2 21 2q67 8 98 10q1 0 11.5 2t15.5 4q29 12 88 0q33 -6 51 -33 q12 -20 16 -30q2 -3 3.5 -10.5t3.5 -10.5q12 -16 16.5 -37t6.5 -47t5 -41q2 -4 2 -14q-15 -180 -18 -217q-11 -188 -33 -293q-14 -87 -20 -109q-25 -80 -25 -141q-1 -8 3 -37t3 -52t-12 -32q-3 -2 -23 -18q4 0 8 -0.5t6 -1t3 -0.5q0 -27 -5 -34t-28 -11q0 1 1 3t1 3 q-1 0 -3 -1t-3 -1q2 -2 2 -6z" />
<glyph unicode="H" horiz-adv-x="1347" d="M66 539q-7 1 -21.5 2t-21.5 2q-33 7 -78 14q-46 8 -66 14q-5 1 -29 13q-16 13 0 22q30 17 46 21q28 7 94 20q15 2 45 5t45 5q4 12 4 19q1 18 4 56.5t4 58.5v24q25 235 31 281q2 26 10 72t10 59q1 4 6.5 30t6.5 41q1 24 6 48t16.5 61t14.5 47q4 7 8 29q32 14 49 10 q20 -5 32.5 -20t12.5 -37q0 -40 12 -58q4 -4 4 -18q-1 -12 1 -25t5.5 -30t4.5 -27q4 -23 4 -72t-4 -143v-31q-13 -92 -9 -258v-115h183q55 -2 178 -14q0 1 1 3.5t1 4.5q20 163 39 353q13 123 41 231q13 60 16 78q4 32 33 102q16 35 26 82q3 17 19 23q28 11 55 -13l6 -4 q-2 -13 6 -37t5 -38q-6 -16 6 -44q6 -17 12.5 -47t9.5 -39q9 -28 11 -40q8 -32 8 -50q5 -35 12 -43q4 -8 4 -18q-1 -31 -2 -96.5t-2 -96.5q0 -5 -6 -47q-6 -35 -6 -104q0 -1 -2 -15.5t-4 -21.5q-5 -23 -15 -141q0 -1 1 -2.5t1 -3.5q5 -1 20.5 -3.5t24.5 -3.5l17 -6 q12 -8 12 -18q0 -3 -4 -8.5t-8 -6.5q-22 -7 -41 -10q-3 -1 -11 -2t-12 -2q-2 -9 -4 -28t-4 -27q-8 -25 -8 -70t-2 -59q-4 -21 -5 -44.5t-0.5 -52t-0.5 -44.5q0 -5 -3 -15.5t-3 -15.5q0 -27 -13 -99q-2 -4 -1.5 -10.5t3.5 -9.5q9 -19 2 -49q-13 -83 -2 -150v-10 q10 -74 13 -92q14 -80 26 -133q5 -15 23 -51q1 -3 14 -11q2 3 6 9.5t6 9.5q37 66 86 207q9 31 33.5 86t30.5 69q11 22 16 37q10 29 31 88.5t31 89.5q38 126 57 195q3 13 10.5 34.5t9.5 28.5q5 18 16.5 54t16.5 55q4 16 4 22q0 29 11 39.5t43 10.5q-2 -8 -7 -23 q-3 -6 -8 -17.5t-8 -17.5q-7 -15 2 -24q12 -12 4 -27q-4 -14 -24 -65q-14 -27 -17 -39q-6 -16 -15 -47t-13 -43q-2 -8 -2 -29q-6 -63 -31 -131q-6 -16 -19.5 -45t-17.5 -39q-6 -12 -6 -17q-1 -17 -6.5 -36t-11 -32t-15.5 -34t-14 -31q-3 -6 -11 -25.5t-11.5 -29t-8.5 -25 t-8 -29.5t-4 -28q-2 -8 -6 -20q-12 -24 -36 -73.5t-36 -74.5q-24 -59 -47 -102q-6 -12 -39 -45q-6 -6 -29 -6q-18 0 -22 -7l-4 -4q-24 -10 -60 -1t-51 30q-33 46 -45 80q-33 90 -43 135q-9 39 -27 164q-4 24 -9 73t-9 74q-18 141 -12 285q1 27 2 81.5t2 80.5q0 21 4 67v29 h-56q-8 0 -24 -1t-23 -1q-12 -1 -34 -2.5t-39 -3.5t-33 -6q-10 -2 -29 -2q-19 -1 -112 -6q-6 0 -9 -3q-2 -4 -2 -14q5 -12 1.5 -87.5t-3.5 -86.5q3 -43 -4 -98q-2 -21 -14 -68q-5 -38 -19 -88q-6 -20 -9 -42.5t-5 -51t-4 -43.5q-2 -8 -4 -25.5t-4 -25.5q0 -15 -4 -19 q-17 -21 -17 -67q0 -4 -1 -11.5t-1 -11.5q-5 1 -16.5 3.5t-16.5 3t-14 -0.5q-6 -3 -12 -3.5t-14 0.5t-11 1q-33 0 -43 33q-26 70 -22 170q0 42 -6 86q-5 26 -5 96q-4 103 -2 158q0 22 2.5 65t2.5 64v70z" />
<glyph unicode="I" horiz-adv-x="487" d="M293 55q17 -1 54.5 2.5t64 0.5t51.5 -19q-7 -3 -15 -7.5t-12 -6.5q-63 -19 -104 -19q-18 0 -60 -3.5t-63 -2.5q-42 2 -105 -12q-8 -1 -27 -2t-28 -2q-21 0 -24 14q43 31 143 43q-4 25 -4 70q-25 265 -29 317l-12 135q-6 210 -6 211q4 172 12 230q2 22 5 65.5t5 65.5 q7 96 25 237q5 40 17.5 117.5t17.5 114.5q0 2 1 8.5t1 13.5q-22 -6 -23 -6q-13 -1 -41 -5t-43 -5q-19 -4 -24 12q7 14 30 14q35 12 84 23q72 14 154 27q38 6 106 -27q-22 -8 -47.5 -13t-58.5 -10t-49 -8v-6q26 -15 30 -66q1 -6 5.5 -19.5t5.5 -20.5q3 -19 8 -54t8 -51 q4 -22 13.5 -76t15.5 -82q0 -3 1 -9.5t1 -10.5q0 -29 2 -86t2 -86q0 -25 -10 -127q-1 -21 -4.5 -57t-4.5 -52q-1 -13 -2.5 -35t-2.5 -39.5t-1 -33.5q0 -35 9 -127q0 -40 -3 -78q-2 -25 -7 -74t-7 -73q-1 -8 -4 -26t-4 -26q0 -91 -4 -116q-1 -8 -3.5 -24t-4 -25.5t-6 -22 t-11.5 -21.5q-4 -6 -7 -13.5t-6 -19t-5 -16.5z" />
<glyph unicode="J" horiz-adv-x="1062" d="M483 395q5 -19 -16 -33q-5 -3 -40 -26t-54 -35q-6 -4 -23 -16t-25 -17.5t-22.5 -16.5t-23.5 -19.5t-20 -20t-19 -23.5q-9 -13 -27 -35t-31.5 -41t-21.5 -38q-4 -7 -31 -76q-5 -12 -14 -43q-2 -7 -9.5 -39t-10 -44.5l-7.5 -37.5t-7 -45t-3 -41q0 -65 20 -121q3 -9 9 -17.5 t11 -13t15.5 -13t13.5 -11.5q66 -57 150 -66q103 -9 192 41q46 25 82 74q28 41 43 57q45 58 45 121q0 9 11 111q2 10 2 27q-1 25 -2 72.5t-2 72.5q-3 144 -17 262q-20 147 -14 272q1 35 3 73.5t5 85.5t4 73q1 12 1.5 33.5t1.5 39t3 33.5q8 130 47 297q18 79 35 135 q9 38 -4 68q-6 0 -18 -4q-21 -5 -62 -17.5t-61 -17.5q-17 -3 -94 -8q-54 -6 -75.5 -9t-62 -14t-71.5 -28q-16 -8 -47 -22.5t-39 -18.5q-18 -9 -31 8q-21 21 4 37q48 34 74 45q78 35 98 41q21 6 101 16q19 3 56.5 6.5t57.5 6.5q98 17 197 67q12 8 16 14q14 17 29 15q4 0 12 4 q25 10 29 12q8 -10 20 -22q32 -35 29 -86q-6 -82 6 -162q10 -82 10 -146q1 -17 -8 -84q-3 -10 -0.5 -55t2.5 -53v-33q0 -3 -1 -8t-1 -8q0 -104 2 -125q1 -12 -10 -111q-2 -16 -5 -48.5t-5 -49.5q-1 -12 -4 -37.5t-4 -38.5q-5 -22 -2 -98t2 -98q0 -4 -1.5 -13.5t-1.5 -13.5 q0 -24 -4 -74q0 -19 -1 -55t-1 -55q-4 -138 -8 -209q-4 -84 -20 -133q-7 -17 -11 -47q-10 -58 -41 -97q-7 -8 -14.5 -25.5t-11.5 -23.5q-8 -14 -26 -38.5t-21 -28.5q-25 -32 -90 -78q-8 -6 -23.5 -15t-19.5 -12q-49 -31 -123 -45q-74 -12 -107 -12q-98 -6 -188 53 q-37 23 -94 72q-7 7 -19 22.5t-16 20.5q-80 115 -80 252q4 229 108 358q59 78 140 129q47 30 96 57q6 3 19.5 8.5t19.5 8.5q14 8 41.5 26.5t42.5 26.5q28 15 61 12z" />
<glyph unicode="K" horiz-adv-x="1173" d="M231 639q-2 -14 -2 -31q-1 -17 -2 -51.5t-2 -52.5q0 -17 -4 -45q-1 -10 -2 -31t-2 -31q-1 -6 -4 -17.5t-4 -17.5q-5 -39 -4 -45q3 -21 -6 -77q-9 -64 -6 -84q4 -31 0 -90q0 -8 -2 -17.5t-6 -20.5t-5 -16q-40 -113 -47 -135q-6 -19 -22 -27q-5 -2 -23 -16q-26 -18 -47 6 q-35 51 -35 97q0 19 -10 137q-2 33 -10 94q-2 22 -5.5 68.5t-5.5 70.5v10q6 13 2 107t-4 106q0 48 -4 150q0 8 2 12q17 187 35 326q15 111 39 219q13 61 16 113q2 20 15 49q8 16 12 49t8 47q-49 -29 -67 -45q-33 -27 -68 -37q-13 -5 -37.5 -15.5t-32.5 -13.5q-18 -9 -28 9 l12 12q60 31 80 43q14 10 41.5 31.5t42.5 31.5q2 1 8.5 8t11.5 9q39 28 50 71q6 27 38 31q31 4 37 -24q2 -18 2 -54v-36q0 -28 4 -78q5 -32 9 -41q11 -32 8 -74q-4 -41 8 -61q2 -4 2 -17q-5 -56 -4 -65q3 -57 14 -101q9 -45 4 -82q-4 -36 9 -55q2 -3 2 -22q-4 -36 -4 -54 q0 -10 6 -16t18 -12q11 11 35 32.5t37 34.5q4 4 9 17t9 18q6 8 19.5 26.5t23 32.5t15.5 29q4 8 10 14q19 14 26 41q10 35 31 45q5 2 8 9q29 49 45 82q19 39 29 47l4 4q18 40 45 78q20 33 35 73q3 8 17 39.5t19 45t12.5 39t10.5 46.5q6 23 35 23q28 -4 31 -27q0 -2 -1 -8 t-1 -8q-7 -44 -41 -139q-7 -23 -21.5 -67t-21.5 -67q-1 -2 -3 -5t-3 -5q-2 -4 -7 -10t-7 -10q-3 -6 -8.5 -18.5t-11 -22t-11.5 -15.5q-26 -30 -33 -53q0 -9 -6 -12q-19 -18 -42 -59.5t-36 -57.5q-30 -35 -65 -86q-1 -1 -3.5 -3t-3.5 -3q-15 -10 -27.5 -24t-26.5 -32t-23 -28 q-19 -21 -56 -51q-38 -30 -59 -62q20 -3 41 -6q6 -1 18.5 -4t18.5 -4q100 -16 168 -65q55 -41 79 -80q6 -11 23.5 -37.5t26.5 -42.5q7 -12 19.5 -35t19.5 -35q2 -3 8 -11t8.5 -15t-0.5 -15q7 -7 9 -30t13 -31v-8q6 -22 5 -23l-2.5 -10t3.5 -7.5t5 -7.5q2 -8 2 -26 q1 -5 1 -15t1 -14q17 -53 28 -74q7 -13 14.5 -41t14.5 -41t12 -27t10.5 -32t8.5 -27q4 -10 15 -28.5t14 -24.5q6 -10 13 -18t20 -14.5t17.5 -9t22.5 -9.5q5 8 15.5 23.5t18.5 27.5t13 23q37 68 70 180q63 209 68 227q7 21 14.5 61.5t11.5 55.5q8 30 35 113q6 18 6 20 q2 19 29 23q6 -8 9 -18t3.5 -17t1 -19t0.5 -18q0 -70 -26 -172q-8 -28 -19.5 -59t-26 -68.5t-22.5 -58.5q-3 -9 -6.5 -20t-8.5 -24.5t-8 -21.5q-28 -87 -51 -151q-5 -11 -11.5 -22t-18.5 -27.5t-15 -20.5q-11 -17 -33 -47t-30 -41q-15 -21 -41 -27q-7 0 -23 -4 q-131 -37 -239 74q-8 9 -16.5 19.5t-14 19t-13.5 22.5t-11.5 21t-11.5 23.5t-11 21.5q-10 20 -30 62.5t-30 62.5q-36 78 -63 182q-38 137 -105 262q-26 47 -86 78zM233 823q1 0 2.5 -1t2.5 -1q6 12 6 13q2 0 0 1t-4 1q-1 -2 -3.5 -6.5t-3.5 -6.5z" />
<glyph unicode="L" horiz-adv-x="931" d="M408 76q44 -9 55 -13q59 -16 129 -43q22 -9 138 -71t157 -70q32 -6 55 3t55 32q29 16 43 20l2 -6q-12 -14 -39 -51.5t-45 -54.5q-10 -13 -22 -19q-26 -17 -92.5 -32.5t-112.5 -3.5q-123 35 -237 90q-15 8 -46.5 25.5t-46.5 25.5q-2 1 -11 6.5t-15 7.5q-4 -7 -19 -29.5 t-22 -35.5q-16 -28 -47 -39q-1 -1 -12 -7t-17 -8q-48 -16 -85 -23t-82 -1.5t-85 28.5q-12 6 -22.5 16t-22.5 24t-18 20q-21 22 -21 50t10 52q8 18 33 39q70 58 158 64q63 6 70 6q0 5 1.5 20t0.5 23q0 19 -1.5 79.5t-0.5 94.5q2 72 10 211q9 110 24 217q27 207 78 360 q31 103 80 177q60 92 125 129q28 15 102 63q29 19 101 23q5 2 17.5 0.5t17 -1.5t16 -3t16 -4t16 -5t15.5 -5.5t15.5 -6t15.5 -6.5q48 -18 71 -41q15 -15 19 -23q16 -31 -17 -43q-13 -4 -16 2q-4 4 -9 6.5t-12.5 4t-11.5 2.5q-87 18 -114 22q-69 9 -90 6q-19 0 -52 -28 q-61 -47 -82 -103q-15 -37 -24 -78q-33 -131 -41 -243q-2 -29 -9.5 -89t-9.5 -89q-2 -31 -2 -91q0 -7 -1 -20.5t-1 -20.5q-4 -12 -4 -20q-1 -18 -2 -56t-2 -57q0 -8 -4 -24q-7 -28 -8 -81t-2 -61q-4 -66 -2 -102q1 -15 0 -31t-3 -36t-3 -31q0 -5 -1 -20t-1 -23zM184 12 q-2 0 -5 1t-5 1q-66 10 -121 -10q-66 -20 -86 -94q32 -43 76 -49q24 -4 68 -8q28 -2 47 26q30 45 26 133z" />
<glyph unicode="M" horiz-adv-x="2168" d="M2191 618q10 -14 11 -35t-13 -46q-25 -38 -32 -76q-3 -17 -7.5 -34.5t-11.5 -40t-10 -34.5q-44 -129 -90 -258q-12 -29 -36.5 -87t-35.5 -87q-4 -11 -12 -35t-13.5 -39t-16 -33.5t-23.5 -31.5q-39 -39 -97.5 -63.5t-113.5 -24.5q-69 0 -127 65q-24 26 -37 63t-15.5 63 t-3.5 77t-2 68q-4 121 11 333q8 78 10 119q3 33 9 73t10 62.5t15 75.5t13 66q6 27 18.5 83t18.5 83q23 117 24 125q14 84 19 137q1 14 -1.5 37t-2.5 32q-6 2 -13 2q-103 -41 -166 -112q-17 -21 -32 -33q-15 -15 -27 -32.5t-27 -43.5t-20 -35q-4 -7 -8.5 -15.5t-10 -17.5 t-8.5 -14q-5 -9 -25 -44t-31.5 -57.5t-20.5 -45.5q-6 -14 -19 -42t-21 -45t-16 -42t-12 -47q0 -1 -1 -4.5t-1 -5.5q-16 -33 -26.5 -69t-22.5 -94t-15 -71q-7 -29 -26.5 -81.5t-24.5 -69.5q-6 -17 -23.5 -78.5t-29.5 -94.5q-21 -58 -70 -92q-38 -32 -82 54q-16 36 -20 98v127 q0 16 1 49t1 49q4 73 8 219q8 135 10 207v33q-12 -11 -30 -37q-55 -94 -90 -158q-5 -8 -12.5 -26.5t-12.5 -26.5q-28 -54 -53 -139q-3 -12 -13.5 -39t-13.5 -43q-2 -11 -15 -53t-14 -66q-8 -83 -53 -199q-9 -27 -18 -59.5t-13.5 -54t-12.5 -63t-11 -56.5q-1 -9 -4 -28.5 t-4 -28.5q-1 -16 -9 -23t-26 -12q-16 -4 -70 0q-41 7 -53 45q-18 44 -20 76q-12 163 -3 256q3 24 3 51q-3 110 8 205q5 48 9.5 136t6.5 116q2 47 7 143.5t7 146.5q7 82 7 140v28q-3 -1 -10 -2t-9 -2q-50 -17 -82 -43q-7 -7 -47 -37q-16 -12 -33.5 -28.5t-28.5 -28.5 t-30.5 -33t-28.5 -30q-26 -26 -41 -56q-10 -15 -28 -18t-33 -6q-19 19 -19.5 27t11.5 24q65 107 129 166q68 60 110 94q32 25 78 49q23 8 51 12q41 6 80 9q43 2 103 -23q40 -17 55 -49q12 -20 20 -66q1 -10 7 -60.5t6 -76.5q0 -9 0.5 -32.5t0.5 -35t-2.5 -30t-7.5 -33.5 q-1 -4 0 -12t0 -12v-99q0 -8 -6 -14q-6 -9 -6 -25q1 -3 -4 -22q-7 -13 8 -19q2 3 5.5 9.5t5.5 9.5q74 162 96 205q46 90 108 161q7 8 23.5 25.5t23.5 26.5q3 6 11 6q69 17 98 20q37 6 63 -20q5 -4 19 -12t20 -15q50 -54 43 -108q-1 -9 -2 -28t-2 -28q0 -3 1 -8t1 -8 q5 2 8.5 5t5.5 8.5t3 6.5q33 77 43 97q8 20 27.5 55t21.5 39q16 24 52 83t56 89q71 104 170 155q47 23 103 29q73 12 149 6q28 -3 48.5 -23t25.5 -46q21 -83 16 -146q-1 -18 2.5 -51t2.5 -49q0 -100 -9 -160q-3 -19 -12 -77t-13.5 -87.5t-9.5 -76t-6 -84.5q-3 -56 -24 -163 t-25 -159q-3 -53 -3 -149.5t-1 -118.5q0 -10 -3 -26.5t-3.5 -25t4.5 -24.5q1 -2 5 -11t6 -12.5t7.5 -8t12.5 -5.5q17 -5 35 -3t30 17q2 4 7.5 11.5t7.5 11.5q14 41 59 156q43 123 62 168q43 117 71 186q55 129 78 180q8 23 10 37q1 4 2 7t3 5.5t3 4t4 3t4.5 2t6 0.5h6.5h8.5 h9.5z" />
<glyph unicode="N" horiz-adv-x="1499" d="M1548 629q6 -22 -4 -43q-15 -40 -35 -76q-7 -14 -105.5 -366.5t-127.5 -403.5q-9 -17 -26 -50.5t-21 -41.5q-22 -42 -58 -68q-13 -9 -37 -27.5t-36 -27.5q-54 -34 -101.5 -27.5t-91.5 47.5q-7 6 -14 15t-14 20.5t-11 16.5q-44 74 -55 145q-2 8 -2 55q0 3 1.5 11.5 t0.5 13.5q0 35 -6 65q-9 37 -11 83t0 77t7.5 88.5t7.5 79.5q4 49 13.5 148.5t13.5 148.5q3 29 5 88.5t6.5 107t14.5 87.5q2 9 8.5 24t8.5 21q13 61 16 84q27 170 76 336q10 32 32.5 95t32.5 95q9 23 17 55q-4 -2 -8.5 -3t-7.5 -2t-5 -3q-7 -8 -24.5 -24t-28.5 -29t-18 -29 q-1 -2 -7 -8q-52 -52 -104 -147q-3 -6 -43 -72q-39 -68 -55 -92q-9 -14 -29 -43t-29 -43q-30 -47 -43 -74q-5 -10 -14 -31t-14 -31q-1 -2 -5 -6.5t-6 -7.5q-11 -11 -12 -14q-8 -22 -27 -60.5t-24 -50.5q-26 -53 -72 -155q-3 -5 -7.5 -15.5t-8.5 -18.5t-8 -14 q-30 -55 -88 -210q-5 -12 -9 -37q-6 -35 -30 -97t-31 -88q-4 -15 -14.5 -43t-14.5 -43q-9 -27 -16 -77q-10 -40 -6 -99q0 -6 -3.5 -17t-4.5 -14q-8 2 -20.5 7t-16.5 6q0 -6 -1 -16t-1 -13q-2 1 -22 9.5t-32 4.5q-12 0 -18 -4q-53 -25 -74 25q-26 56 -31 106q-4 33 -8 99 q-1 12 -5 34t-5 31q-4 130 -8 199q-3 67 2 121q2 24 1.5 66t0.5 67q0 2 6 119q4 50 6 77q2 41 7.5 126.5t7.5 129.5q1 7 12 58q4 22 22.5 117.5t26.5 146.5q3 18 8 104q-28 7 -51 -12q-69 -50 -131 -104q-15 -12 -42 -37.5t-42 -38.5q-25 -21 -49 -21q-22 4 -27 23 q6 7 21 25t24 28q25 28 56 53q90 74 137 109q52 41 129 31q43 -7 63 -21q28 -23 31 -26q44 -65 51 -125q1 -13 4 -54t6 -63q3 -3 0.5 -25.5t-2.5 -27.5q-4 -54 -12 -84q-3 -8 -3.5 -18t0.5 -24.5t1 -19.5q-5 -124 0 -166q4 -23 2.5 -102t-0.5 -102q0 -18 -3.5 -50.5 t-4.5 -42.5q-1 -12 -1 -37.5t-1 -37.5q-2 -33 -7 -99.5t-7 -99.5v-98l8 20q19 90 39 142q7 16 14.5 47t11.5 43q43 121 58 155q50 114 98 209q90 172 137 258q67 126 68 127q98 156 149 230q62 92 148 163q76 67 182 93q68 19 115 -35q11 -13 20 -64q4 -31 3.5 -49t-4 -49 t-3.5 -49q-1 -9 -4.5 -37t-3.5 -43q0 -21 -4 -43t-12 -52t-11 -42q-42 -202 -80 -328q-22 -71 -49 -328t-29 -364q0 -6 1.5 -18t1.5 -17q0 -13 -3.5 -118.5t-3.5 -116.5q4 -82 2 -121q-3 -78 17 -133q3 -11 11.5 -15t19.5 2q14 6 26 25q10 15 33 61q17 36 55.5 156t74 237 t40.5 130q14 34 36.5 111t35.5 110q1 4 59 139q9 27 55 33z" />
<glyph unicode="O" horiz-adv-x="1509" d="M799 45q-6 6 -11 6q-107 51 -170 187q-47 102 -71 251q-3 18 -10.5 58.5t-10.5 62.5q-8 57 -4 140q4 58 2 88q-3 93 15 192q12 65 45 154q19 54 71 100q49 44 56 49q18 15 42.5 22t47 6.5t47.5 -1.5q37 0 56 -1.5t47 -7.5t47 -21.5t34 -41.5q9 -16 16.5 -32.5t14 -37.5 t10 -33t10.5 -38.5t9 -34.5q7 -25 11.5 -50t6.5 -56t3 -48.5t-0.5 -56.5t-1.5 -49.5t-3.5 -57t-3.5 -51.5q-1 -10 -2 -77.5t-8 -102.5q-4 -19 -9 -80q0 -8 -4 -20q-8 -21 -23.5 -59t-21.5 -54l-6 -12q-19 -24 -31 -78q0 -6 -2 -10q-6 -20 -28 -84q3 -3 12 -10t13 -10.5 t12.5 -9t14 -7.5t13.5 -3.5t15 -0.5q76 15 147.5 70.5t120.5 124t87 135t60.5 112.5t26.5 47q9 2 27.5 4.5t27.5 4.5v-29q-11 -31 -26 -66q-62 -129 -128 -224.5t-157 -162.5q-85 -64 -150 -88q-59 -23 -180 -35q-11 0 -20 -12q-45 -78 -140 -149q-54 -40 -83 -60 q-72 -49 -164 -61q-52 -4 -80 -8q-29 -3 -101 14q-1 1 -4 2t-4 2q-130 75 -192 178q-34 56 -64 154q-45 139 -59 235q-10 80 4 191q2 16 5 46t5 46q18 107 33 180q13 82 33 148q23 91 65 157q10 15 13 21q35 72 88 147q69 106 184 176q52 31 63 35q60 26 131 68q42 21 50 26 q18 9 32 -2q5 -5 23 -14q16 -8 10 -22q-3 -11 -16 -21q-1 -1 -19.5 -9.5t-25.5 -15.5q-29 -26 -68 -45q-4 -2 -10 -8q-1 -1 -1.5 -3t-1 -3.5t-1.5 -1.5q-11 -4 -19.5 -11t-17.5 -17.5t-14 -14.5q-2 -2 -8.5 -7.5t-11.5 -11t-9 -10.5q-14 -19 -39 -58.5t-29 -45.5 q-1 -2 -4 -6t-4 -6q-31 -28 -31 -62q0 -4 -4 -12q-11 -24 -20 -94q0 -11 -4 -27q-18 -56 -39 -127q-8 -31 -10 -49q-26 -120 -60 -320q-19 -115 -12 -286q3 -121 63 -238q5 -10 5 -14q36 -113 147 -170q62 -30 121 10q50 32 104 86q20 20 94 113q5 5 11 14zM887 246h6 q7 11 10 22q3 10 17 54.5t20 68.5q24 79 45 162q22 81 25 156q2 31 10 98q6 54 6 55q1 28 -2.5 62t-6.5 52.5t-11.5 63.5t-10.5 54q-14 67 -45 133q-4 7 -12 24t-15.5 28.5t-17.5 20.5q-20 17 -38.5 20.5t-32 -6.5t-25 -25.5t-19.5 -40.5t-14 -47t-10 -49t-6 -43l-4 -32 q-4 -60 0 -180q12 -207 30 -309q2 -11 5.5 -51.5t9.5 -61.5q4 -15 41 -125q9 -27 14 -37q5 -14 16.5 -37t14.5 -30z" />
<glyph unicode="P" horiz-adv-x="1163" d="M47 1466q27 9 33 9q59 0 96 -43q30 -35 37 -97q1 -10 16 -84q4 -12 4 -18q2 -31 14 -90t15 -86q1 -15 2 -43.5t2 -42.5v-45q1 0 3 -1t3 -1q2 4 6.5 12t6.5 12q22 56 37 90q56 120 141 238q37 56 86 104q76 72 166 86q11 2 23.5 2t28 -1t24.5 -1q40 0 86 -24 q47 -23 69 -78q26 -56 45 -152q6 -34 6 -69q0 -117 -28 -238q-10 -48 -28.5 -141.5t-27.5 -138.5q-2 -10 -30 -113q-5 -25 -6 -31q5 2 11 4.5t7 3.5q54 36 117 58q14 4 35 17.5t30 17.5q20 12 66 32q14 7 31 7q10 1 14.5 -2.5t7.5 -14.5q5 -18 -12 -22q-17 -5 -32.5 -14 t-36.5 -24l-28 -20q-16 -11 -128.5 -76t-116.5 -67q-6 -2 -11 -12q-24 -40 -34 -60q-16 -32 -33 -76l-14 -28q-6 -10 -17.5 -31t-17.5 -31q-10 -14 -37 -41q-15 -17 -41 -36q-7 -5 -23 -18t-29 -22t-26 -14q-58 -24 -90 -18q-37 9 -45 39q-4 18 -14 50.5t-11 37.5 q-7 30 15 67q21 34 80 97q48 51 133 82q17 7 22 20q7 23 60 174q12 31 20.5 62t19 82t13.5 63q5 22 11 62t7 47q0 10 -2 14q-4 14 -5 31t0 28t3.5 32.5t3.5 29.5q4 64 -2 96q-2 16 -5 47.5t-5 46.5q-1 12 -4 33.5t-4 32.5q-4 30 -8 47q-12 49 -13 51q-4 13 -10.5 16 t-19.5 -2q-59 -26 -68 -32q-50 -32 -68 -62q-7 -10 -22 -27t-21 -24q-54 -68 -61 -78q-20 -34 -45 -82q-27 -58 -72 -157q-5 -13 -13 -39.5t-13 -38.5q-5 -16 -19 -53t-20 -58q-6 -12 -6 -27q0 -59 -2 -90q0 -2 -5 -32q-2 -10 -7 -34t-7 -38q-6 -30 -6 -31q-8 -46 -10 -69 q-4 -78 -6 -115q-1 -13 -5.5 -36t-5.5 -34q0 -20 2 -30q4 -45 -6 -62q0 -2 -2 -4q-2 -31 -10 -94q-6 -46 -6 -47q-18 -98 -25 -127q-2 -16 -10 -44.5t-10 -37.5q-13 -59 -27 -109q-6 -28 -43 -61q-16 -16 -45 0q-53 30 -59 90q-4 27 -4 121q-2 53 -2 159q-1 17 -3 66 t-2 65.5t2 65.5q3 29 3 119q0 68 16 194q19 187 20 240q0 23 17 287q4 72 8 110q4 52 16 148q2 15 6.5 45.5t6.5 46.5q6 51 -23 102zM469 106q4 -2 8 -2q44 21 86 82q7 12 -10 23q-52 -38 -84 -103z" />
<glyph unicode="Q" horiz-adv-x="1110" d="M684 229q6 26 20 74.5t19 69.5q3 13 17 78t20 100q5 29 9.5 83t6.5 71q2 15 6 44.5t6 43.5q7 43 -2 151q-9 84 -14 119q-2 20 -10 55q-30 116 -150 125q-78 4 -123 -8q-26 -6 -67 -35q-139 -94 -233.5 -233t-129.5 -303q-21 -90 -4 -207q2 -12 11.5 -70.5t13.5 -89.5 q1 -11 -4 -57q0 -7 -8 -15q-16 -26 -35 -4q-4 6 -15 19.5t-17 22t-13 21.5t-11 25q-80 289 0 537q31 95 95 198q31 49 108 160q69 97 184.5 149t242 42t220.5 -86q99 -80 115 -168q7 -29 25 -74q11 -26 17.5 -65t8.5 -64t4 -77t2 -62q8 -175 -69 -383q-3 -8 -10.5 -24.5 t-10.5 -24.5q-7 -24 -21.5 -71.5t-21.5 -70.5q-9 -27 -14 -37q-9 -15 -17 -32.5t-17.5 -40t-14.5 -33.5q-4 -4 -4 -16q0 -9 4 -25q20 -70 71.5 -192.5t65.5 -161.5q30 -82 71.5 -142.5t104.5 -103.5q2 -2 7 -5t7 -5q46 -19 15 -58q-3 -8 -3.5 -9t3 -8.5t4.5 -10.5 q-53 9 -98 26q-142 59 -234 180q-83 110 -133 211q-15 35 -18 41q-2 4 -9 19t-10 24q-8 -8 -10 -12q-55 -78 -171.5 -106t-195.5 30q-81 65 -129.5 159t-29.5 185q35 151 178 199q73 23 178 16q36 -2 115 -22q3 0 18 -10q32 -32 84 -56zM369 201q-80 -19 -127 -37 q-25 -10 -41 -39t-13 -55q1 -22 19 -86q7 -19 43 -76q10 -18 35 -39q51 -40 135 -47q41 0 74 20q43 30 96 101q11 16 2 37q-47 95 -92 155q-43 56 -131 66z" />
<glyph unicode="R" horiz-adv-x="1359" d="M1354 614q29 19 47.5 19.5t21.5 -25.5q-4 0 -66.5 -141.5t-72.5 -169.5q-12 -31 -31 -113t-39 -123q-9 -18 -28.5 -53.5t-28.5 -54.5q-18 -34 -53 -66q-79 -72 -164 -75q-6 0 -10 -2q-60 -24 -121 0q-9 4 -23 8q-81 16 -131 96q-33 56 -84 184q-18 45 -34 95t-34.5 116.5 t-27.5 96.5q-31 109 -115 178q-23 18 -75 43q-6 -12 -6 -13q-21 -124 -23 -139q-6 -45 -20 -82q-7 -19 -13 -42t-9 -41.5t-5.5 -48.5t-3.5 -44t-2.5 -47.5t-1.5 -42.5q-3 -64 -21 -242q0 -21 -4 -61q-8 -70 -10 -105q0 -11 -14 -22q-10 -7 -17 6l-14 21q-1 -10 -14.5 -17 t-14.5 -16q-51 33 -61 78q-31 153 -27 446q1 87 -3 262.5t-2 313t15 260.5q4 36 14.5 106.5t14.5 106.5q6 58 12 120q4 45 41 134q6 13 11.5 15.5t21.5 0.5q49 -11 80 -59q6 -10 10 -21.5t7.5 -30t4.5 -22.5q4 -18 12.5 -53t12.5 -52l6 -36q2 -14 10 -33q2 -2 7 -2q0 4 4 8 q43 89 151 149q71 41 137 60q39 11 91 4q42 -6 47 -6q40 0 90 -43q32 -22 51 -62q8 -13 22 -55q17 -42 17.5 -89.5t-8.5 -86.5t-27 -88q-62 -174 -180 -273q-10 -7 -23 -14q-114 -65 -198 -84q-3 -3 -13 -6q33 -18 68 -43q22 -16 78 -64l49 -49l4 -2q75 -97 98 -170 q3 -10 10.5 -30.5t10.5 -30.5q2 -6 2 -17q3 -10 8 -29.5t8 -29.5q5 -17 15.5 -49t15.5 -49q11 -30 16 -49q8 -33 6 -50q0 -36 27 -57q4 -4 29 -24q18 -12 39 -9q4 2 14 2q42 -3 76 37q64 73 102 160q99 226 225 500q4 10 13 28zM297 651q47 24 133 64q90 44 127 90 q15 19 94 133q16 21 19 55q2 24 7 76t7 80q1 5 2 15.5t2 15.5q16 67 10 125q-5 40 -30 79q-17 21 -37 15q-40 -10 -47 -13q-16 -6 -43 -17.5t-35 -14.5q-80 -38 -121 -115q-9 -20 -31 -84q-1 -3 -4 -9t-4 -9q-8 -17 -24.5 -53t-24.5 -54q-4 -6 -4 -20q2 -54 -10 -160 q-2 -16 -0.5 -58.5t-3.5 -58.5q-1 -18 -0.5 -27.5t3 -28t3.5 -28.5q3 0 6.5 1t5.5 1z" />
<glyph unicode="S" horiz-adv-x="1210" d="M1188 633q35 19 49.5 4t-0.5 -45q-35 -26 -49 -35q-60 -40 -82 -53q-44 -28 -74 -45q-13 -7 -37 -21.5t-34 -19.5q-6 -4 -41 -19q-23 -8 -41 -18q-12 -3 -19 -10q-3 -1 -9 -4.5t-9 -4.5q-3 -21 6 -36q7 -14 16 -29q20 -39 27 -70q4 -13 8 -43q2 -6 5 -20.5t5 -20.5 q4 -32 4 -49q1 -7 2.5 -23.5t2.5 -23.5v-12q3 -27 -5 -49q-3 -8 -8 -24t-8 -23q-5 -31 -27 -68q-2 -3 -17 -26.5t-22 -37.5q-2 -3 -7 -10t-7 -10l-20 -20q-66 -75 -156 -111q-61 -22 -115 -33q-78 -12 -118 -14q-95 -6 -181 24q-10 4 -30.5 12.5t-30.5 12.5q-45 25 -57 33 q-88 48 -105 149q-3 38 2 62q3 15 21 59q29 69 71 117q43 52 101 98q56 45 92 62l44 22t56 27q42 18 76 35q31 12 76 34q6 0 6 2q2 2 6 4q0 2 -1 7t-1 6q-28 50 -45 86q-20 42 -54 88t-55.5 69.5t-70.5 75.5q-57 63 -156 178q-7 8 -37.5 42t-41 46t-33.5 43t-33 51t-21 50 t-14 59q-9 80 10 160q1 5 8 32.5t10 39t9.5 32.5t13 37t14.5 29q3 5 11.5 20t12.5 21.5t12.5 18.5t15.5 19t17 14t21 11q10 3 46 23q69 50 165 94q105 48 258 58q5 3 29 0.5t29 -2t28.5 -4t28 -5.5t28 -6t27.5 -6q51 -9 119 -55q49 -36 64 -70q16 -37 20 -55q8 -67 10 -96 q0 -64 -2 -97q-5 -45 -16 -119q-4 -36 -39 -88q-26 -44 -57 -71q-17 -13 -33 -8q-11 0 -16 10q0 15 8 18q15 10 33 51q25 65 41 144q8 38 8 141q0 9 -4 25q-3 8 -13.5 39.5t-15.5 48.5q-9 38 -41 55q-7 4 -23 12.5t-25 12.5t-23 8t-27 4q-27 0 -41 -2q-64 -9 -138 -25 q-11 -2 -31 -8.5t-30 -9.5q-62 -15 -139 -60q-19 -10 -58 -49q-37 -33 -51 -53q-19 -27 -24 -49q-10 -47 -13 -84q0 -95 2 -113q0 -26 15 -63q12 -29 63 -94q38 -52 85 -108t105 -122.5t91 -105.5q61 -72 129 -144q36 -33 69 -88q1 -2 4.5 -6t4.5 -6q2 -2 5.5 -8t4.5 -8 q18 6 33 12q4 1 14.5 4t17.5 4q23 10 66 28.5t47 20.5q44 20 111 62q8 3 16 8q3 1 9 4t9 4q3 2 10.5 6t10.5 6q4 2 11.5 6.5t11.5 6.5q1 1 6 4t8 4zM674 8q3 40 -8 80q-8 43 -35 92q-28 57 -41 94q-2 0 -4 2q-2 -2 -8 -2q-5 0 -9 -4q-67 -28 -84 -34q-35 -15 -82 -35 q-19 -8 -45 -23q-8 -5 -24.5 -12.5t-20.5 -9.5q-7 -2 -18 -13q-2 -2 -7.5 -6.5t-8.5 -7.5l-91 -76q-9 -11 -20 -20q-3 -3 -9 -10.5t-9 -10.5q-15 -10 -17 -12q-10 -10 -12 -16q-9 -12 -21 -35q-15 -30 -18 -35q-5 -13 -2 -37q3 -21 12 -39q2 -6 6 -19.5t6 -19.5 q9 -42 58 -63q47 -23 90 -31q20 -8 37 -8q24 -4 39 -4q45 -5 96 10q46 15 90 39q47 25 94 76q40 49 51 110q12 41 15 80z" />
<glyph unicode="T" d="M317 1444q3 -10 13.5 -38t13.5 -42q18 -80 21 -104q3 -18 8 -111q1 -7 3 -21.5t3 -21.5q2 -20 7 -61t7 -62q1 -17 5 -52.5t5.5 -53t3 -53.5t-0.5 -54q-1 -10 0.5 -30t1.5 -27v-6q-5 -13 -5.5 -26t2.5 -33.5t3 -24.5v-29q-8 -50 -5 -109q2 -13 -2 -34q-19 -59 -30 -150 q-1 -10 -2 -33t-4 -40t-9 -33q-4 -11 -4 -56q-1 -7 -2 -21.5t-2 -21.5l-3 -36t-3 -37q0 -51 -2 -76q-1 -8 -4 -24.5t-4 -24.5q-2 -14 -7 -39t-6 -33q0 -17 -2 -23q0 -8 -4 -24q-1 -3 -3 -10.5t-3 -10.5q-4 -20 -10 -24q-17 -14 0 -27q1 -1 2.5 -4.5t3.5 -5.5q-32 5 -39 2 q-4 -1 -31 -23q-44 16 -51 70q-12 124 -16 182q-1 29 -2 87t-2 87q0 18 -2 55t-2 56q0 16 1.5 67.5t0.5 79.5q0 39 -8 125q-1 16 -4.5 49.5t-4.5 51.5q-6 177 -6 180q0 36 4 106q4 168 4 250q3 97 17 178q4 25 11 74t11 72q-12 1 -34 4t-33 4q-97 8 -150 10q-9 0 -34 -1.5 t-39 -0.5q-51 3 -103 33q-4 2 -12 10q12 19 41 19q61 8 94 10q222 18 231 18q35 1 100.5 -0.5t86.5 -1.5q12 1 48 1.5t56 2.5q111 8 238 2q27 -4 37 -14q2 -3 5 -4.5t7.5 -3l7.5 -2.5q-10 -14 -47 -23q-1 -2 -3 -7t-3 -7q-9 -25 -37 -25q-33 1 -41 1t-41.5 -4t-42.5 -5 q-13 -1 -39.5 -5t-40.5 -5q-54 -4 -82 -4q-6 -1 -18 -2t-19 -2z" />
<glyph unicode="U" horiz-adv-x="1468" d="M221 -45q41 -12 127.5 58t122.5 116q59 75 139 186q81 117 140 209q11 16 18 41q6 28 18.5 85.5t18.5 86.5q4 24 8 68q1 8 4 34t6 40q13 40 29 137q5 22 15.5 65t15.5 64q3 13 10 38t10 38q5 20 8 26q23 38 52 131q6 19 12 22.5t26 2.5q2 0 5.5 -1t5.5 -1q25 -3 32.5 -11 t8.5 -34q2 -18 6 -58q0 -4 -1 -13t-1 -13q-7 -40 10 -64q8 -8 4 -28q-18 -68 -28 -141.5t-17.5 -178.5t-11.5 -145q-8 -75 -23.5 -225.5t-23.5 -225.5q-19 -166 -39 -262q-5 -30 -13 -63t-18.5 -74.5t-15.5 -63.5q-21 -92 -11 -137q1 -2 3.5 -11t3.5 -15q6 -20 21 -26.5 t34 3.5q44 26 85.5 70.5t78 105.5t58.5 103.5t52 105.5q66 133 187 461q3 9 8.5 27.5t9.5 32.5t11 33.5t14.5 30.5t19 23t24.5 12.5t31 -2.5q-13 -35 -45.5 -127.5t-47.5 -134.5t-47.5 -126t-54.5 -132t-58 -121t-68 -124.5t-74.5 -110.5t-87.5 -109q-120 -134 -260 -118h-2 q-45 41 -69.5 95t-27.5 118.5t2 115.5t17 121q15 82 17 139q1 20 22 144q8 81 10 112q2 8 -6 35q-2 -3 -5.5 -6.5t-5.5 -6t-3 -5.5q-30 -43 -60 -90q-18 -30 -39 -60q-16 -24 -50 -75.5t-53.5 -80.5t-53.5 -73t-63.5 -72t-70 -56.5t-83.5 -45.5q-64 -24 -113 -14 q-43 6 -78 36q-61 61 -61 158q-4 46 -4 70v47q2 15 12 88q5 31 4 37q-2 26 0.5 52t9.5 65t9 51q12 90 20 135q2 11 6.5 32.5t7.5 39.5t4 34q2 47 11.5 98.5t25 116t21.5 95.5q25 118 39 223q2 17 8.5 57t7.5 56.5t-2 56.5q-4 22 -14.5 30.5t-25 3.5t-28.5 -14t-28 -22 q-61 -61 -115 -148q-13 -23 -47 -37q-18 -9 -41 11q5 10 23 48t30 58q33 58 76 98q104 100 227 103q55 4 80 -33q3 -5 8 -8q28 -16 39 -62q1 -5 4.5 -14t4.5 -12q4 -12 5.5 -25.5t1.5 -31t1 -25.5q8 -203 -2 -305q-10 -121 -66 -346t-61 -250q-39 -183 -41 -195 q-1 -5 -4 -25t-5.5 -36.5t-5 -40.5t-2 -43t3 -37t10.5 -30t21 -15z" />
<glyph unicode="V" horiz-adv-x="1298" d="M1362 631q-3 -3 -12 -25t-18.5 -45t-10.5 -26q-97 -144 -186 -226q-61 -53 -109 -55q-13 -1 -53 -4.5t-62 -3.5q-75 0 -125 53q-2 2 -6.5 5.5t-7.5 6.5q-7 -11 -12 -23.5t-10.5 -29.5t-8.5 -25q-5 -14 -14 -43t-14 -43q-17 -38 -99 -223q-3 -6 -8 -21.5t-10.5 -26 t-13.5 -19.5q-7 -8 -13 -19t-13 -26.5t-11 -22.5q-23 -46 -27 -61q-2 -9 -12 -23.5t-12 -19.5q-12 -23 -43 -39q-12 -9 -25 -2q-37 12 -92 12q-55 -4 -78 43q-3 7 -8.5 20.5t-7.5 18.5q-7 23 -21.5 70.5t-21.5 70.5q-4 17 -11.5 49t-11.5 49q-11 52 -32 148t-27 125 q-4 16 -12.5 45t-12.5 45q-4 20 -25 109t-30 137q-7 34 -17 99.5t-12 74.5q-8 53 -10 82q-20 208 -23 245q-2 18 -6 53.5t-6 53.5q-6 47 -18 137q-4 29 -23 29q26 32 72.5 40t77.5 -7q32 -16 51 -40.5t37 -64.5q2 -8 10 -24q5 -11 14 -31t16.5 -37t12.5 -33q17 -54 25 -96 q6 -23 14 -76q8 -29 10 -39q6 -29 14 -80q15 -70 17 -88q5 -19 4 -22q-1 -14 1.5 -29.5t4.5 -23.5t8.5 -28.5t7.5 -23.5q19 -76 41 -190q10 -41 11 -47q1 -7 2 -20.5t2 -20.5v-4q5 -25 5 -75.5t5 -74.5q3 -17 6 -52t6 -52q4 -19 11.5 -58t11.5 -59q2 -9 6.5 -32.5t6.5 -36.5 t4 -33t1 -37q-1 -9 8.5 -28t10.5 -23q15 4 22 26q8 21 37 95.5t45 115.5q7 20 37.5 106.5t48.5 133.5q14 42 51 127q10 28 0 49q-23 43 -51 137q-1 4 -2 14t-2 15q-5 43 -6 45q-17 58 -14 139q1 20 1 62.5t1 62.5q1 11 4.5 88t11.5 117q1 6 5 17.5t5 17.5q14 42 27 94 q7 22 33 37q59 34 108 47q35 12 88 -6q3 -1 8.5 -3t8.5 -3q44 -11 47 -60q1 -15 10 -65q15 -58 12 -140q0 -43 -16 -133q-22 -128 -72 -237q-15 -37 -26 -72q-3 -12 -3 -25q9 -78 19 -102q0 -1 6 -35q1 -4 2.5 -14.5t4.5 -18t9 -12.5q2 -1 3 -7t2 -7q8 -48 42.5 -70.5 t81.5 -9.5q31 7 64 37q100 87 164 215q18 36 43 51q6 5 25 0t22 -12zM817 1255q-14 -14 -18 -47q0 -77 -4 -118q-4 -34 4.5 -97.5t9.5 -72.5q1 -20 25 -113q10 30 12 35q13 40 31 176q2 11 0.5 41t-0.5 43q2 38 -21 102q-17 38 -39 51z" />
<glyph unicode="W" horiz-adv-x="1878" d="M213 1331q-49 -9 -84 -47q-25 -25 -35 -39q-41 -55 -45 -90q-2 -15 -6 -43t-6 -43q-3 -54 18 -121q-15 -12 -24 0q-21 25 -27 39q-28 56 -20 158q9 106 75 194q55 70 136 82q20 2 53 -6q100 -34 129 -96q5 -11 17 -34t19 -41.5t9 -37.5q2 -10 9 -30.5t9 -30.5 q7 -19 11 -49q18 -108 9 -249.5t-26.5 -253t-20 -251.5t28.5 -246q4 -12 11.5 -41.5t15 -50.5t18.5 -39q9 -15 14.5 -17t20.5 1q61 13 105 78q56 88 82 176q14 42 39 143q26 109 38 154q13 50 21 137q4 32 11 95t11 95q0 5 1 15.5t1 15.5q3 26 29 29q44 7 62 -27 q5 -10 19.5 -26.5t19.5 -24.5q11 -15 14 -31q4 -54 4 -84q-3 -55 -3 -117.5t1.5 -139t1.5 -118.5q0 -111 -1.5 -210t8.5 -214t34 -208q3 -16 18 -39q26 -35 68 -15q26 17 35 31q87 142 104 172q28 50 86 172q6 15 55 148q-3 3 -8 9t-8 9q-44 35 -53 96q-14 96 -14 127 q-1 20 3 59.5t5 49.5q16 126 22 192q2 29 9 63t13 56t18.5 63.5t17.5 57.5q29 99 110 125q41 11 74 -5t39 -57q3 -18 8 -159q3 -119 -14 -201q-4 -22 -20 -91t-21 -108q-1 -8 -11 -32q-4 -23 -11.5 -46.5t-19.5 -55.5t-16 -44q-5 -16 -2 -21.5t17 -15.5q32 -19 65 -2 q52 32 86 84q15 21 86 131q13 22 17 33q27 55 51 111q20 44 61 39q2 -1 9 0.5t10 1.5q7 1 -21.5 -59.5t-67.5 -132.5t-61 -105q-2 -3 -11.5 -16t-12 -17t-11 -15.5t-12.5 -16.5l-12 -15t-13.5 -16t-13 -14t-14.5 -15t-14 -13q-38 -32 -89 -57q-37 -15 -79 -6q-4 1 -29 6 q-5 -13 -14.5 -34.5t-12.5 -28.5q-2 -6 -12.5 -44t-17.5 -57q-11 -28 -33 -78t-31 -71q-9 -16 -20 -45q-5 -10 -18 -36.5t-23 -45t-21 -35.5q-21 -39 -67 -92q-22 -25 -52 -45q-30 -21 -96 -21h-35q-86 -3 -143 80q-37 57 -51 150q-15 114 -27 225q-8 90 -10 139 q-12 -20 -14 -24q-53 -97 -56 -103q-2 -6 -10 -14q-30 -26 -82 -74q-8 -6 -9.5 -9t3.5 -15q-5 -1 -15.5 -4.5t-15.5 -4.5q-12 -2 -36.5 -6t-36.5 -6q-97 -17 -168 64q-40 45 -62 131q-39 142 -33 303q0 7 -1 21.5t-1 21.5q0 42 4 53q9 36 5 121q-4 35 0 104q1 27 4 112 t6 132q13 145 -17 393q-5 32 -16 41zM1458 399l4 -2q3 9 6 15q2 6 6.5 17.5t7.5 21t5 18.5q31 127 35 152q3 18 3 54.5t3 53.5q9 56 0 197q0 23 -19 67q-11 -11 -14 -24q-14 -43 -14 -97q0 -6 -11 -102q0 -4 -2 -11t-2 -11q0 -84 -8 -127q-4 -25 -4 -74v-60v-53q4 -24 4 -35 z" />
<glyph unicode="X" horiz-adv-x="1140" d="M-82 1399q2 1 9 4t12 4q80 14 129 -10q15 -6 28 -19q36 -36 107 -137q9 -14 25.5 -43.5t25.5 -44.5q5 -9 17 -24t19 -28t9 -28q1 -12 0 -19t0.5 -15.5t5.5 -18.5q11 -26 26 -55t33.5 -63t28.5 -54l8 -4q4 7 11.5 21.5t11.5 21.5q9 14 30.5 49t34.5 53q62 94 111 158 q10 15 32 42.5t32 41.5q20 28 69 57q1 0 4.5 1t5.5 1q18 9 27 0q3 -6 3.5 -8t-2 -8.5t-3.5 -9.5q-8 -22 -33 -43q-4 -3 -12 -10.5t-12 -10.5q-13 -7 -22.5 -16.5t-24 -29.5t-15.5 -21q-19 -23 -43 -82q-12 -34 -45 -84q-52 -75 -76 -168q-2 -9 -9.5 -27t-8.5 -20 q-3 -9 -9 -28t-9 -28q-2 -12 10 -32q5 -7 13 -23t13 -23q10 -14 19.5 -31.5t14.5 -30.5t13.5 -36t12.5 -33q7 -16 29 -75q97 -264 167 -367q101 -150 187 -68q32 30 49.5 71.5t31.5 111.5t19 86q20 69 31 127q4 21 11 62.5t11 62.5q8 37 21 82q10 29 35 43q18 7 32 0 q9 -21 -4 -43q-4 -12 -4 -21q2 -23 -1.5 -45t-14 -58t-12.5 -42q-7 -32 -23 -90.5t-20 -73.5q-1 -5 -12 -45.5t-14 -51.5t-15 -50t-18.5 -54t-21 -48.5t-26 -49.5t-30 -41t-36.5 -38t-41.5 -25.5t-48.5 -18.5q-68 -15 -149 31q-43 25 -98 92q-51 60 -102 145.5t-72.5 129 t-77.5 159.5q-1 2 -5.5 9t-7.5 12q-2 -4 -5.5 -9.5t-4.5 -7.5q-64 -136 -158 -272q-83 -119 -153 -195q-2 -3 -6 -5l-10 -5t-11 -6q2 24 15 59q12 22 32.5 64t32.5 63q14 28 43 84t43 84q21 41 61 124t60 124q11 20 2 41q-18 64 -61 141q-40 76 -90.5 225.5t-69.5 194.5 q-3 7 -10.5 21.5t-10.5 21.5q-23 66 -39 107q-8 19 -27 65t-30 74z" />
<glyph unicode="Y" horiz-adv-x="1169" d="M629 -498q-3 -8 -8 -16q-4 -8 -18 -40.5t-19.5 -44t-19 -39t-23 -42t-24 -36t-30 -37.5t-32.5 -31q-7 -5 -22.5 -17.5t-28 -21t-25.5 -13.5q-49 -25 -70 -30q-10 -2 -32.5 -11t-34.5 -10q-106 -17 -166 33q-15 15 -21 18q-9 7 -17 17t-17.5 25.5t-12.5 19.5 q-34 44 -26 135q4 59 28 118t52 101.5t80.5 97t84.5 83t92 79.5q27 21 81.5 64t80.5 65q4 2 11.5 7.5t11.5 7.5q63 55 98 84q13 10 16 26q14 108 17 137q1 22 2.5 62.5t3.5 74.5t6 64q3 17 -2 33q-3 -4 -8 -13.5t-8 -13.5q-13 -18 -39 -54.5t-39 -55.5q-71 -98 -94 -127 q-58 -72 -119 -97q-70 -30 -145 -24q-68 8 -117 80q-13 21 -23 45.5t-15 43.5t-9 50t-5.5 45.5t-3 51.5t-2.5 48q-8 139 -4 502q1 38 11 217q1 12 4 38.5t3.5 39.5t-1.5 37q-22 -9 -43 -27q-28 -25 -82 -100q-24 -34 -31 -64q-1 -5 -9 -20t-9 -25q0 -7 -10.5 -10t-18.5 2 q-3 2 -9 7.5t-9 7.5q-9 8 -10 13t3 17q8 19 25 58t25 59q50 103 147 160q46 26 94 14q24 -9 51 -12q36 -9 52 -45q25 -52 28 -107q0 -14 4 -44t4 -46q4 -88 -2.5 -249.5t-5.5 -227.5q2 -114 23 -383q0 -3 1 -6t2.5 -6.5t2.5 -5.5t6.5 -11.5t7.5 -15.5q14 -33 49 -21 q45 16 84 62q94 105 179 240q12 17 34 52.5t33 53.5q12 14 15 35q3 35 10 101t10 97q2 25 5 76.5t5 77.5q1 14 5 56t6.5 62t8.5 52.5t15 58.5q12 39 21 60q5 11 9.5 13t16.5 -1q42 -16 60 -53q13 -23 16 -47q1 -7 9.5 -23t8.5 -24q4 -65 16.5 -152.5t21 -145.5t8 -134 t-16.5 -144q-37 -146 -23 -213q4 -29 -2 -43v-18q11 0 19 12l96 96q3 3 9.5 11.5t9.5 11.5q5 6 22 23.5t25 27.5q16 22 51 58.5t41 43.5q4 5 12 16.5t12 16.5q9 12 27.5 9.5t24.5 -17.5q4 -4 -2 -10q-7 -14 -17 -21q-17 -11 -32 -45.5t-19 -40.5q-12 -20 -40 -52t-36 -42 q-28 -40 -92.5 -98t-81.5 -76q-2 -1 -3.5 -4.5t-2.5 -3.5q-13 -4 -28 -21t-19 -20q-4 -4 -4 -8q1 -7 -2 -14t-8 -14.5t-7 -12.5q-52 -138 -104 -353q-31 -121 -94 -260zM592 -51q-2 2 -4 2q-13 -13 -21 -19q-2 -2 -7 -6t-7 -6q-6 -4 -17.5 -12t-17.5 -12q-5 -5 -13.5 -15 t-17 -17t-18.5 -11q-1 0 -8 -7q-3 -3 -8.5 -9t-8.5 -9l-55 -42q-55 -42 -113 -92t-113.5 -127t-66.5 -145q0 -4 -4 -12q-8 -33 -10 -47q-1 -4 -2 -13.5t-2 -13.5q-12 -67 24 -118q6 -7 18.5 -20.5t18.5 -20.5q20 -23 49 -23q10 1 32 4t32 4q34 3 72 29q49 35 79 96 q44 79 46 84q2 4 10 19.5t10 23.5q30 98 35 117q4 16 11 47.5t11 46.5q22 75 29 125q7 40 35 174q2 8 2 25zM635 -471l-2 4q-2 -1 -5 -4t-5 -4l4 -4z" />
<glyph unicode="Z" horiz-adv-x="937" d="M485 1483q-36 -2 -112 -10h-2q-18 -8 -39 -11.5t-49 -5.5t-41 -4q-64 -6 -129 -6q-72 3 -142 12q-43 6 -114 41q-17 10 -17 29q10 8 39 8q21 -2 62.5 -7t62.5 -7q27 -2 78 -2q23 0 70 2t71 2q124 0 242 41q18 7 57.5 19.5t57.5 19.5q30 12 61 4q8 -2 14.5 -6t15.5 -12.5 t11 -10.5q20 -17 23 -43q9 -47 -9 -92q-7 -18 -16 -50.5t-12 -43.5q-33 -79 -37 -88q-9 -19 -21.5 -39.5t-22 -35t-26 -38t-24.5 -35.5q-7 -10 -31.5 -45.5t-41.5 -58.5t-36 -43q-19 -21 -62.5 -60.5t-62.5 -62.5q-9 -10 -24.5 -33t-24.5 -33q-9 -14 -30.5 -37t-30.5 -36 q-3 -3 -10.5 -8t-12 -10.5t-4.5 -14.5q54 -6 55 -6q84 -2 195 -43q53 -20 80 -37q42 -26 73 -68q16 -22 28 -48.5t26 -62.5t20 -51q2 -4 10 -24q5 3 13.5 8.5t13.5 8.5t11.5 8t10.5 10q63 67 197 213q6 7 19.5 19.5t17.5 16.5q35 -25 41 -30t4 -9.5t-6 -6.5t-11.5 -6.5 t-11.5 -10.5q-34 -40 -130 -144.5t-107 -113.5q-39 -28 -41 -29q-13 -10 -15 -27.5t2 -42t3 -34.5q0 -1 2 -56.5t-2 -56.5q-3 -22 -13.5 -62t-13.5 -55q-30 -142 -96 -280q-81 -173 -236 -262q-7 -4 -24.5 -12t-26.5 -15q-31 -20 -82 -27q-7 -1 -20.5 -5t-18.5 -5 q-96 -13 -170 25q-46 22 -57 67q-30 97 -8 156q2 4 10 23t14 28q32 53 78 119q6 8 43 45q39 31 57 57q8 13 37 33q12 6 23 16t22.5 23t18.5 19q16 16 44.5 41t35.5 32q18 15 34 31q31 36 70 53q30 12 35 43q2 11 7.5 37t8.5 40.5t5.5 36t2.5 40.5q-4 90 -8 135q-2 35 -41 66 q-84 65 -176 94q-15 5 -74 10q-15 1 -62 1.5t-73 2.5q-37 1 -55 26t-16 64q2 32 34 82q2 5 41 68q53 89 119 170q19 24 54 70.5t44 58.5q53 66 138 178q17 25 52 72.5t52 72.5q1 2 5 9t7 12zM358 -92l7 14q-8 -3 -25 -16q-27 -20 -70.5 -62.5t-50.5 -48.5 q-107 -98 -143 -141q-40 -49 -64 -107q-2 -5 -7.5 -18t-9.5 -23.5t-7.5 -23t-3 -23t5.5 -18.5q13 -24 38.5 -30.5t51.5 5.5q71 32 123 86.5t96 132.5q1 2 6 17q8 35 24.5 104.5t24.5 104.5l-2 23q-2 22 6 24z" />
<glyph unicode="a" horiz-adv-x="718" d="M248 387q-3 -3 -9 -7.5t-8 -6.5q-46 -43 -90 -45q-13 -1 -36 -7.5t-35 -7.5q-82 -3 -119 52q-14 17 -21 45q-18 69 -4 137q2 10 5.5 30.5t5.5 30.5q3 10 9 31t9 31q3 8 12.5 33.5t12.5 39.5q22 76 71 134q21 20 33 38q20 28 66 43q8 3 24.5 9.5t24.5 9.5q17 6 47.5 9 t40.5 5q12 0 18 2q24 8 72 0q25 -3 47 -32q23 -35 25 -39q19 -36 -9 -60q-6 -6 -20 -6q-9 -3 -12 10q-1 12 -7 23.5t-11.5 18.5t-16 18.5t-15.5 17.5l-6 6q-36 13 -69 4q-71 -15 -95 -57q-13 -23 -24 -50.5t-24.5 -66t-18.5 -51.5t-14.5 -41t-14.5 -41q-10 -32 -14.5 -50 t-9.5 -45t-4.5 -51t6.5 -48q6 -29 39 -47.5t59 -6.5q8 3 15.5 8t15 13t14 14.5t14 17.5t12.5 17.5t12.5 19l10.5 17.5t10.5 18t8.5 15q1 1 12 47q0 1 4 21t8 28q3 14 13 40.5t12 33.5q2 8 11.5 34.5t12.5 42.5q10 32 35 35q13 4 39 8q24 3 31 -20l6 -12q2 -8 -4 -30t0 -30 q1 0 1 -15l-1 -15q0 -19 -4 -44t-11.5 -58t-9.5 -44q-4 -25 -8 -66t-8 -65q-8 -33 -10 -47q-2 -13 -6.5 -44.5t-6.5 -49.5q-4 -24 -4 -39q0 -2 -1 -11t-1.5 -17.5t-0.5 -20t2 -19t6.5 -14.5t13 -6.5t20.5 4.5q12 6 38 29t34 34q5 8 23 34t31 46.5t20 36.5q17 34 56.5 122 t55.5 122q2 4 3.5 11t4 11t7.5 4q5 1 14 2.5t12 2.5q15 0 12 -13q-5 -33 -8 -37q-15 -23 -69 -153q-22 -50 -35.5 -80t-41 -80t-52.5 -81t-61 -61.5t-75 -43.5q-24 -9 -61.5 -4.5t-56.5 22.5q-12 9 -19 23q-30 47 -26 141q2 35 10 115v18z" />
<glyph unicode="b" horiz-adv-x="944" d="M328 -139q-15 46 -17 73q-6 66 35 119q46 66 74 94q4 4 12 12.5t12 12.5q13 12 39.5 35.5t40.5 34.5q15 15 15 28q0 5 1 15.5t1 15.5q-1 18 -4.5 51t-4.5 49q-3 23 -12 43q-9 12 -12 23q-23 50 -82 53q-26 3 -57 -18q-59 -46 -95 -92q-56 -74 -69 -107q0 -2 -2 -4 q-14 -16 -27 -55q-3 -15 -10 -29q-14 -22 -10 -72q5 -86 2 -110q0 -37 -4 -53q-2 -15 2 -43q0 -20 -9 -29q-1 -2 -2 -6t-2 -6q0 -17 -20 -33q-4 -4 -9 -8.5t-11 -11t-9 -9.5q-4 1 -11 4t-11 4q-2 -4 -7.5 -12t-7.5 -12q-19 14 -28 14q-3 0 -9 6q-2 6 -6 18.5t-6 18.5 q0 1 -6 23q-16 53 -27 145q-4 21 -6 44.5t-3.5 52t-2.5 44.5q-1 18 -2 54t-2 55q0 11 4 39q0 23 4 59q2 15 5 45t5 45q1 14 3.5 39.5t3.5 36.5q0 15 6 27q8 16 8 41q0 65 6 96q3 12 0 24q-3 37 12 72q14 38 17 49q4 20 4 31q3 23 12 47q25 53 27 78q1 4 3 12.5t3 12.5 q2 4 35 96q46 125 96 213q8 15 23.5 44.5t23.5 45.5l12 18q19 32 41 60q28 36 47 53q51 48 103 76q22 14 53 24q57 22 98 29q40 7 66 0q15 -5 18 -10q4 -9 21 -13q18 -5 45 -16q38 -13 64 -51t26 -78q-1 -10 4 -51q3 -23 -2 -41q-1 -2 -2 -6t-2 -6q0 -22 -4 -76 q-4 -29 -12 -41q-5 -7 -5 -19q3 -20 -4 -41q-8 -28 -14 -40q-5 -12 -12 -34.5t-10 -31.5q-3 -10 -9 -23q-16 -24 -18 -38q-1 -4 -6 -12.5t-6 -12.5q-11 -24 -21 -55q-24 -61 -45 -90q-11 -17 -33 -56q-2 -3 -7 -8t-7 -8q-28 -28 -33 -37q-29 -45 -80 -76q-93 -62 -112 -76 q-6 -3 -18 -8.5t-15 -7.5q-5 -3 -16.5 -9t-16.5 -9q-28 -17 -53 -23q-20 -3 -68 -16q-18 -6 -37 -6q-22 -3 -30 -23q-10 -27 -10 -47q0 -74 2 -88q0 -10 -2 -14q-4 -17 0 -52q0 -2 2 -4q5 3 8 8q26 31 33 41q23 35 67 70q11 11 21 16q12 7 38.5 25t42.5 27q33 20 70 20 q4 0 12.5 1t12.5 1q16 2 53 -2q41 -5 80 -47q20 -23 28 -45q2 -4 6 -15.5t6 -17.5l5 -15t4 -17.5t0 -16.5q0 -19 6 -37l12 6q97 74 125 101q8 7 31.5 25.5t34.5 29.5q8 8 37 32t39 42q8 12 32 16q16 4 27 -4q-1 -2 -1 -5.5t-1 -4.5q-4 -3 -13 -15t-16 -16q-16 -12 -26 -20 q-1 -2 -4 -5.5t-4 -5.5q-5 -11 -12.5 -20t-21.5 -19t-18 -14q-5 -5 -30 -35q-5 -6 -16.5 -17.5t-16.5 -17.5l-21 -21q-22 -20 -34 -28q-4 -2 -15 -12q-2 -2 -5 -6t-5 -6q-9 -7 -28.5 -21.5t-28.5 -21.5q-7 -7 -11 -9q-8 -8 -8 -14l-1 -18q0 -17 1 -17q2 -6 2 -18 q-2 -14 -2 -45q0 -3 -1 -10.5t-1 -10.5q-10 -48 -10 -88q-3 -27 -14 -43q-15 -27 -31 -59q-12 -24 -35 -47l-8 -8q-12 -6 -33.5 -18.5t-32.5 -18.5q-29 -12 -75 -19q-10 -3 -17 0q-3 1 -33 13q-8 2 -28 6zM160 612h10q5 2 15.5 5.5t15.5 5.5q29 7 88 36q39 19 96 52 q104 66 156 123q38 43 43 51q57 82 100 166q30 62 37 102q2 7 6 20.5t6 20.5q3 7 8 25q8 44 4 65q0 8 3 14q3 15 4.5 41.5t3.5 36.5q0 3 1 10.5t1 10.5q0 5 -0.5 15.5t-0.5 19t1 16.5q0 35 -6 53q-4 6 -4 21q-3 31 -17 53q-8 12 -10 20q-8 23 -37 41q-13 7 -27 4 q-19 -2 -55 -18q-20 -7 -31 -23q-3 -3 -10 -8t-10 -8q-28 -20 -41 -33q-26 -22 -37 -39q-8 -12 -26 -32.5t-25 -30.5q-2 -3 -9.5 -10.5t-9.5 -12.5q-6 -12 -24 -35.5t-25 -39.5q-1 -2 -12 -19q-6 -4 -11.5 -10.5t-11 -14.5t-8.5 -12q-15 -23 -32 -84q-13 -59 -25 -80l-6 -18 q-5 -24 -16.5 -70t-16.5 -69q-5 -25 -6 -29q-3 -12 -10.5 -36.5t-10.5 -37.5q0 -8 -2 -14q-5 -53 -12 -70q-2 -4 -2 -14q0 -16 -6 -31q-4 -8 -4 -14q-6 -69 -6 -72q-3 -19 4 -43zM444 -63q11 11 25 43q4 14 12 38q20 48 33 86q4 16 16 48v12l-12 -8q-4 -6 -31 -33 q-9 -9 -16 -23q-12 -20 -20 -30q-15 -18 -25 -41q0 -1 -1.5 -7t-0.5 -8q0 -43 8 -63q2 -4 12 -14z" />
<glyph unicode="c" horiz-adv-x="677" d="M-49 383q-3 18 2 72q2 8 4 25.5t2 19.5q0 30 6 65q2 26 14 73.5t15 70.5q1 2 2 5t2 5q12 46 22 69q6 14 17.5 38.5t15.5 33.5q6 12 17.5 31.5t13.5 23.5q4 8 4 11q14 27 51 49q4 2 33 15.5t45 19.5q4 2 45 12q7 1 22.5 3t22.5 3q8 2 25 2q55 5 119 -26q3 -1 9.5 -6.5 t8.5 -6.5q10 -7 10 -18q1 -4 4 -12.5t4 -12.5q11 -26 9 -43q-3 -3 0 -10q0 -21 -17 -55q-7 -12 -24.5 -18t-28.5 -1q-8 4 -6 10q6 40 6 41q3 11 -2 48q0 10 -10 20q-20 15 -29 18q-32 16 -35 17q-11 6 -20 0q-5 -4 -15.5 -11.5t-15.5 -11.5q-7 -5 -12 -14q-11 -35 -37 -64 q-20 -24 -29 -53q-3 -10 -10 -29.5t-10 -29.5q-4 -8 -4 -14q-3 -18 -21 -80q-11 -30 -14 -54q0 -2 -6 -20q-12 -30 -15 -59q-1 -12 -6 -34.5t-6 -29.5q-2 -2 -2 -8q-4 -58 -4 -84q-2 -11 2 -27v-10q-3 -4 -0.5 -24.5t2.5 -24.5v-23q-4 -25 4 -43q2 -4 5 -14t5 -14 q1 -5 11 -35q6 -15 18 -27q20 -16 39 -8q12 4 18 4q43 7 101 39q12 7 34 33q8 9 50 51q12 12 33 34.5t32 33.5q61 65 88 102q1 1 2 3t2 3q11 9 22 22t17.5 23t18 27t16.5 24q1 1 12 23q12 24 23 37q14 24 41 18q15 -3 12 -18q-3 -16 -16 -33q-30 -36 -33 -39q-7 -11 -12 -14 q-17 -17 -19 -27q0 -4 -6 -10q-3 -4 -10 -12.5t-10 -12.5q1 -5 -1.5 -9.5t-6.5 -9t-5 -7.5q-8 -16 -22 -37q-2 -4 -6 -8q-9 -6 -22 -22.5t-17 -20.5l-2 -2q-11 -19 -41 -46t-35 -32q-3 -4 -9 -12.5t-9 -12.5q-47 -59 -78 -76q-69 -44 -123 -61q-75 -22 -109 -27q-20 0 -30 4 q-19 9 -25 11q-28 12 -55 39q-6 9 -11 14q-31 29 -49 88q-2 5 -5 14.5t-5 14.5q-6 21 -6 45q-2 33 -2 96z" />
<glyph unicode="d" horiz-adv-x="1138" d="M1174 639v-27q2 -2 2 -5t-2 -5q-17 -25 -37 -70q-11 -20 -23 -53.5t-20 -50.5q-15 -31 -33 -66t-40 -76t-34 -65q-101 -191 -215 -274q-55 -38 -100 -64q-30 -18 -76 -8q-7 3 -33 8q-112 18 -153 127q-15 38 -23 123q0 9 -4 33q-25 -17 -27 -19q-12 -9 -18 -24 q-30 -42 -81.5 -52.5t-101.5 5t-89 45.5q-44 35 -70 74q-64 100 -47 245q11 90 50.5 174t102.5 144q43 43 88 65q4 2 76 25q12 4 34.5 16.5t35.5 16.5q37 12 96 12q11 0 19 2l6 18q4 20 15.5 83t21.5 106t24 82q9 27 28.5 82.5t28.5 83.5q15 45 43 80q35 40 101 40h29 q24 -5 26 -6q4 -3 18 -12.5t20.5 -14.5t16 -13.5t15.5 -16.5q76 -83 71 -170q0 -7 2.5 -20.5t2.5 -20.5q-2 -95 -50 -252q-27 -86 -88 -207q-4 -9 -15 -27t-15 -28q-5 -9 -15.5 -28.5t-15.5 -28.5q-13 -20 -37.5 -60t-36.5 -61q-2 -3 -6 -10.5t-6 -10.5q-26 -34 -35 -51 q-10 -16 -16 -35q-24 -105 -27 -211q-3 -52 0 -102q6 -71 68 -117q17 -12 40 -15.5t42 5.5q15 9 29 19t28 23t22.5 20.5t24.5 25.5t20.5 23.5t23 28t22.5 26.5q29 35 59 85.5t45.5 82.5t44.5 94q7 18 26.5 54t26.5 53q33 69 37 81q11 29 22.5 42.5t35.5 23.5zM209 225 q15 -10 50.5 -10.5t51.5 12.5q24 22 62 52q14 11 14 30q0 33 4 99q1 24 5 71t5 70q4 84 27 223q6 37 14 76q-23 -4 -26 -6q-10 -5 -64 -43q-189 -129 -215 -279q-9 -46 -12 -74.5t-2.5 -68t15 -71.5t42.5 -58q28 -22 29 -23zM618 612q1 0 4 -1t5 -1q0 1 3.5 6t4.5 9 q4 8 20 36t23 44q64 130 72 151q21 50 43 129q47 139 32 285q-2 18 -14 49q-8 31 -25 65q-1 1 -3 5t-3.5 6t-4 5t-4.5 4.5t-5.5 3t-7.5 1.5q-1 -1 -7.5 -1.5t-13.5 -3.5t-14 -18t-10 -40q-3 -7 -20.5 -124t-34 -234t-17.5 -120q-3 -15 -8 -43.5t-8 -42.5q-13 -58 -13 -59 q-1 -4 -3 -17t-3.5 -21t-3 -20.5t-1 -20t1.5 -15.5t5 -12.5t10 -4.5z" />
<glyph unicode="e" d="M618 618q1 -2 13 -14q-4 -12 -8 -16q-24 -30 -39 -68q-4 -4 -4 -8q0 -14 -11.5 -34.5t-13.5 -26.5q-6 -7 -15.5 -26t-15.5 -26q-22 -27 -51 -76t-58.5 -88t-66.5 -65q-3 -2 -36 -28t-44 -32.5t-38 -21.5t-49.5 -19.5t-47.5 -2.5q-14 1 -28.5 4.5t-33 9.5t-28.5 8l-8 4 q-45 29 -66 58q-38 55 -41 126q-3 92 4 158q10 80 11 101q0 6 4 22q10 40 20 100q7 32 43 123q1 3 8 17q13 13 25 41q0 1 1 3t1 3q11 39 51 74q5 5 15 10q62 32 108 39q50 9 66 6q14 0 34 -4q2 0 6.5 -1t6.5 -1q47 -1 66 -40.5t12.5 -90.5t-27.5 -99.5t-47 -68.5 q-24 -15 -31 -23q-3 -6 -10 -6q-19 -11 -33 -16q-5 -2 -30.5 -11.5t-38.5 -11.5q-28 -5 -32.5 -8.5t-10.5 -26.5q-5 -25 -5 -26q1 -33 -11 -113t-11 -144t29 -104q15 -21 41 -31q8 -6 26 -2q31 10 53 27q15 9 41 28t29 21q15 12 27 27q51 68 67 100q2 5 8 12.5t7 8.5 q20 23 49 71.5t32 53.5q10 15 11 18q14 34 53 90q8 16 22 16zM369 854q-14 17 -21 37q0 7 -6 10q-34 34 -74 29q-36 -6 -47 -37q-2 -5 -8.5 -21t-9.5 -27.5t-4 -23.5q0 -11 -6 -20q-8 -19 -17 -70q-4 -35 -10 -51q-8 -24 -4 -35q48 6 96 27q32 16 49 41q26 36 49 75 q6 11 2 17q-3 13 4 29q1 3 3.5 10t3.5 10z" />
<glyph unicode="f" horiz-adv-x="595" d="M70 145q7 5 19 11.5t13 7.5q29 22 62 31q32 10 84 49q46 39 86 65q7 4 14 9.5t16 14t13 11.5q17 17 53 57q17 17 25 27q7 9 21.5 26.5t21.5 26.5q13 16 39.5 51.5t40.5 51.5q7 10 0 24q13 11 49 15q-2 -8 -13 -19q-17 -29 -18 -31q0 -1 -1 -4t-1 -4q2 -15 -14 -35 q-4 -5 -12.5 -15t-12.5 -15q-25 -25 -35 -37q-8 -8 -10 -12q-2 -18 -18 -33q-33 -33 -46 -41q-14 -9 -47 -47q0 -4 -4 -8q-10 -6 -28.5 -21.5t-28.5 -21.5q-42 -28 -55 -41q-28 -28 -62 -43q-24 -12 -59 -33q-12 -6 -6 -17l6 -12q10 -15 26 -35q47 -70 54 -94 q3 -9 5.5 -30.5t6.5 -32.5q3 -9 11.5 -32.5t12.5 -35t7.5 -31t3.5 -37.5q-3 -84 -51 -153q-23 -30 -50 -35q-3 -1 -11.5 -4t-14.5 -4q-32 -9 -68 16q-6 6 -15.5 19t-10.5 14q-5 6 -13 19.5t-10 15.5q-38 70 -51 102q-4 13 -8 17q-13 26 -13 49q-2 10 -6 26q-8 22 -15.5 63 t-10.5 54v23q0 43 -9 86q-3 19 -8 56t-8 56q0 4 -1 12.5t-1 12.5q-6 30 -6 61q0 17 -4 49v23q2 17 2 36.5t-1 43t-1 35.5q0 22 2 32q9 34 12 70q2 18 7 53t7 52q11 70 37 192q1 6 4 21t4 24q3 34 19 66q20 45 31 82q8 27 26.5 78.5t26.5 78.5q47 142 160 328q8 15 20.5 28.5 t30 30t26.5 25.5q51 54 138 57q55 4 83 4.5t72.5 -9t75.5 -34.5q39 -32 55 -89t9 -113q-3 -23 -13.5 -64.5t-13.5 -54.5q-1 -3 -3 -9.5t-3 -9.5q-9 -23 -12 -53q0 -2 -7 -16q-6 -27 -18 -54q-5 -25 -4 -30q0 -7 -4 -15q-6 -23 -29 -67q-6 -10 -16 -31.5t-13 -28.5 q-25 -52 -57 -92q-4 -4 -11 -14t-11 -14q-6 -9 -17 -28.5t-16 -27.5q-4 -6 -12.5 -16t-10.5 -12q-12 -10 -33 -32.5t-26 -27.5q-7 -7 -23 -22t-24 -23q-7 -7 -13 -10q-2 -4 -8 -10q-11 -8 -37 -30t-41 -32q-16 -12 -45 -26l-9 -7q-8 -6 -13 -8q-4 -4 -8 -4q-6 -2 -30.5 -13 t-37.5 -13q-23 -3 -31 -23q0 -2 -2.5 -5.5t-3.5 -4.5q-7 -10 -4 -25q3 -36 3.5 -45t-4 -47t-5.5 -45q-2 -60 -14 -174q0 -3 -1.5 -7.5t-0.5 -6.5q6 -14 -2 -41q0 -1 1.5 -4.5t2.5 -6.5zM121 621q8 0 12 4q34 14 66 39q118 81 223 186q17 17 29 41q11 21 20 33 q9 10 18.5 23.5t15 22t15 25.5t12.5 23q43 69 86 192q60 164 37 291q-15 96 -71 141q-8 7 -32.5 12t-31.5 7q-30 8 -69 -57q-3 -6 -14 -20t-15 -23q-3 -5 -6 -18t-6 -17q-20 -29 -48 -96.5t-30 -71.5q-25 -56 -45 -135q-6 -25 -25.5 -70t-23.5 -55q-19 -56 -48 -182 t-53 -191q-8 -16 -6 -27q3 -15 -6 -30q-6 -18 -6 -21q0 -4 1 -12.5t1 -13.5zM80 88q-4 -51 0 -68q3 -13 9.5 -50t12.5 -58q4 -13 11.5 -37t11.5 -37q4 -12 4 -33q1 -4 1.5 -13t1.5 -14.5t5 -10.5q8 -11 8 -29q1 -4 4.5 -11.5t4.5 -11.5q5 -23 36 -43q0 -2 7 -2q20 -3 26 17 q8 41 6 63q0 15 -2 21q-20 81 -37 123q-1 2 -6 22q-2 8 -10 29q-2 4 -6 13t-6 13l-5 10t-7 11q-13 15 -33 55q-2 6 -7 12.5t-8 9.5t-12 10.5t-10 8.5zM731 1548q0 2 2 2q-1 0 -2 1t-2 1h-2zM274 -250l-2 2z" />
<glyph unicode="g" horiz-adv-x="712" d="M362 -418l-20 -20q-2 -2 -4 -4.5t-4 -4t-4 -4t-4.5 -4l-5 -3t-5.5 -1.5h-6q-7 -7 -25 -15t-20 -9q-29 -16 -55 -19q-32 -6 -92 -10q-44 -6 -99 14l-18 6q-1 1 -3.5 5t-4.5 6q-36 25 -53 84q-1 3 -3.5 9t-3.5 9q-10 13 -10 35q-6 67 19 133q45 114 127 205q38 42 53 61 q44 50 110 105q12 9 25 19.5t27.5 22.5t23.5 19q12 9 12 25q-1 10 -1 30.5t-1 30.5q-1 9 5 90q1 9 2 28.5t2 29.5q-2 -1 -5 -2t-4 -2q-6 -5 -16.5 -15t-15.5 -14q-30 -27 -70 -43q-6 -2 -18.5 -7t-18.5 -7q-10 -5 -14 -5q-52 -3 -105 9q-26 10 -45 26q-4 4 -12 12.5 t-12 12.5q-40 32 -49 82q-7 55 -4 102q5 56 22 129q2 12 5 23.5t8 25t8 21t11 23.5t10.5 20.5t12.5 23.5t11 21q14 21 22 37q15 22 31 30q1 0 2 1.5t2 1.5q16 16 31 28q4 3 16 10t18 13q1 2 13 8q6 1 17.5 4t17.5 4q2 0 6 1t6 1q11 -1 33 -2t32 -2q49 -11 107 -37 q4 -3 20 -8q15 -4 19 -10q3 -3 2 -8t-4 -7q-16 -10 -29 -2q-17 10 -47 21q-21 8 -47 -2q-37 -18 -68 -49q-19 -15 -24 -33q-1 -2 -11 -12q-13 -11 -20 -31q-6 -17 -20 -35q-11 -17 -17 -37q-4 -13 -22 -65q-11 -33 -11 -41q-1 -3 -2 -8.5t-2 -8.5q-10 -33 -10 -65 q0 -11 -8 -31q-8 -21 -6 -33q0 -3 -1 -8.5t-1 -7.5q0 -3 -4 -8t-3 -8q3 -9 7 -17q6 -36 6 -37q3 -13 14 -16q18 -9 39 -2q31 7 51 24q42 28 68 70q29 42 39 64l2 4q27 38 39 127q3 32 12 63q7 22 20 76q1 4 1 14t1 15q11 7 19 10q21 7 39 -2t18 -31q-4 -25 11 -72 q8 -31 8 -69q0 -33 8 -95q1 -9 2.5 -25t2.5 -29.5t1 -26.5q0 -4 1 -14t1 -15q1 -10 1 -31t1 -31q3 -39 -2 -69q0 -2 2 -6q1 1 3 2q3 1 3 2q70 64 137 131q44 44 87 90q3 2 8 6t8 6q15 5 18 4q10 -3 13 -16q-2 -5 -29 -37q-22 -22 -25 -31q-2 -4 -20 -34q-15 -25 -19 -29 q-5 -6 -16 -17.5t-16 -17.5q-4 -4 -9 -4q-55 -41 -94 -102q-4 -7 -14 -13q-4 -2 -12.5 -5t-12.5 -5q-13 -8 -16 -22q-3 -19 0 -37q2 -18 2 -56q0 -30 -4 -92q-8 -78 -4 -117v-36q0 -29 -2 -43q0 -55 -4 -70q-1 -7 -4 -21.5t-4 -21.5q-6 -30 -21 -57q-5 -6 -10 -27 q-3 -20 -17 -41q-28 -44 -30 -47q-4 -8 -4 -12q-5 -18 -5 -19zM317 141q-6 -4 -14 -8q-15 -17 -47 -41q-2 -2 -7 -6t-7 -6q-45 -50 -56 -64q-9 -13 -28.5 -34.5t-28.5 -34.5q-25 -30 -29 -41q-16 -32 -37 -56q-20 -24 -20 -43q-5 -38 -23 -86q-11 -32 -6 -51q0 -4 -2 -6 q-16 -16 -6 -41q4 -6 8 -18t4 -13q11 -25 27 -34q8 -6 23 -21q17 -17 45 -14q38 6 65 24q45 30 92 103q2 5 4 12.5t2 9.5q1 6 4 16t3 11q4 16 6 22q1 9 3 29t3 29t3 28.5t3 28.5q0 6 1 17.5t1 17.5q2 15 6 44t6 44q5 60 7 74q1 24 0.5 35t-2.5 35.5t-3 37.5zM383 -328l-2 -2 h2v2z" />
<glyph unicode="h" horiz-adv-x="962" d="M389 543q-18 -6 -35.5 -21t-23.5 -30q-12 -36 -33 -48q-6 -6 -6 -10q-4 -11 -18.5 -36.5t-18.5 -41.5q-1 -4 -16 -24q-23 -41 -23 -60q0 -2 -4 -10q-17 -44 -21 -110q0 -24 -12 -64q-10 -27 -2 -49q2 -10 -2 -31q-25 -72 -27 -82q-3 -14 -20 -47q0 -1 -1.5 -2t-3.5 -2 t-3 -2q-9 0 -23 6.5t-20 7.5q-7 -7 -13 -16q-8 0 -16 8q-10 12 -29 8q-1 0 -3 -1t-3 -1q-15 -2 -20 13q0 1 -1 3t-1 3q1 12 -5.5 32.5t-7.5 24.5q-6 23 -10 70q-1 10 -1.5 41.5t-2.5 48.5v2q0 2 -6 125q-1 12 4 59q0 8 1 23.5t1 23.5q0 57 4 84q3 36 0 70q-3 55 6 110 q2 10 5.5 31t5.5 31q3 19 9 59.5t9 59.5q4 19 10.5 58t10.5 58q0 16 6 31q10 45 28 109q0 1 1 4t1 4q8 26 25 79.5t25 80.5q13 40 47 127q8 23 28 63q7 21 27 49q15 26 22 45q19 45 41 62q15 12 29 41q13 27 35 43q62 48 156 55q6 0 18 1t18 1q29 3 70 -8q66 -13 115 -41 q28 -15 55 -53q18 -27 27 -62q1 -3 3 -8t3 -8q8 -20 8 -35q0 -4 1 -11t1 -11q4 -21 2 -31q-3 -19 -4.5 -54.5t-3.5 -48.5q-3 -33 -21 -110q-11 -41 -35.5 -85.5t-45 -72t-59.5 -76t-54 -67.5q-61 -80 -100 -111q-6 -4 -51 -37t-68 -51q-10 -8 -38.5 -31t-42 -32.5 t-37.5 -25.5t-46 -25.5t-47 -16.5q-24 -6 -27 -10t-8 -29q-6 -24 -6 -47v-45q1 -5 1 -11t-0.5 -12.5t-0.5 -9.5q-1 -6 -2 -19.5t-2 -19.5q-4 -18 -4 -80q-4 -37 -2 -55l4 -12q4 6 8 14q9 25 32.5 69t30.5 58q6 11 19 30t18 27q4 6 29 41q4 4 12 13.5t12 13.5q29 29 76 57 q41 23 82 17q16 0 31 -19q4 -8 16 -24q12 -12 15 -31q5 -21 17.5 -63t19 -75t6.5 -67q-1 -50 -18 -173t-13 -191q4 -35 8 -105q0 -6 -1 -17t-1 -16q0 -32 23 -65q5 -8 18 -8q22 0 47 18q16 13 29 29q31 44 41 61q35 56 84 168q2 3 8 21q1 3 3 10t3 10q10 22 25.5 66t25.5 65 q8 19 10 31q3 10 7 20.5t9.5 22t8.5 18.5q36 78 49 138q5 24 29 112q8 20 22 49q1 2 23 35q13 20 35 17q9 -13 0 -39q-1 -7 -6.5 -21t-6.5 -16q-7 -10 -4 -21q2 -7 -2 -16q-15 -58 -18 -70q-10 -29 -14 -39q-38 -93 -52 -188q-16 -101 -106 -276q-7 -14 -26.5 -54t-31.5 -62 t-34 -50t-47 -43q-55 -31 -74 -35q-3 -1 -8.5 -4t-8.5 -4q-20 -8 -32 -6q-3 0 -8.5 -1.5t-8.5 -1.5q-34 -9 -70 9t-55 51q-21 40 -28 72q-5 35 -8 101.5t-7 96.5v117q3 53 17.5 155.5t17.5 155.5q0 9 1.5 40.5t0.5 49.5q0 13 -6 17zM141 631q15 5 17 6q32 21 73 49 q6 4 43.5 33.5t57.5 44.5q53 42 125 121q3 4 10 12t10 12q12 13 36.5 38.5t37.5 37.5q3 3 8 9.5t8 9.5q22 25 47 69q42 66 80 154q3 8 8.5 23.5t8.5 23.5q1 6 3 19.5t3 19.5q4 20 8 65q0 33 2 49q3 13 0 27q-4 11 -2 16q0 28 -12 52q-4 8 -4 12q-2 19 -21 45q-11 19 -16 33 q-5 16 -25 30q-18 9 -22 13q-22 14 -52 6q-26 -6 -67 -31q-3 -3 -9.5 -9t-9.5 -9q-4 -5 -12 -16.5t-12 -16.5q-12 -16 -12 -29q0 -5 -5 -10q-13 -23 -38 -82q0 -1 -3.5 -7t-3.5 -11q0 -3 -6 -15q-6 -8 -10 -24q-5 -37 -27 -72q-2 -3 -5 -11t-5 -11q-20 -63 -24 -74 q-6 -13 -13.5 -38.5t-9.5 -31.5q-5 -8 -9.5 -26t-6.5 -23q-6 -17 -17.5 -47.5t-15.5 -42.5q-8 -25 -10 -35q-4 -36 -35 -96q-11 -23 -14 -41q-6 -28 -15 -64q-1 -4 -4 -14.5t-4 -17.5q-1 -5 -3 -17t-4.5 -21t-6.5 -16q-2 -2 -2 -8q0 -21 -11 -35q-7 -14 -2 -28zM111 240v-2 v2z" />
<glyph unicode="i" horiz-adv-x="454" d="M479 614q13 -13 13 -24q-5 -15 -9 -31q-7 -11 -14.5 -32t-11.5 -29q-3 -9 -11 -21q-10 -8 -18 -33l-10 -20q-14 -28 -15 -35q-1 -3 -5 -10t-5 -10q-4 -9 -12 -28.5t-13.5 -34.5t-9.5 -30l-4 -2q-26 -42 -30 -47q-5 -9 -14 -18t-15 -13.5t-20.5 -14.5t-18.5 -13 q-14 -17 -47 -29q-4 0 -8 -4q-7 -2 -25 -5t-26 -5q-22 -4 -33 2q-9 4 -31 10t-31 10q-36 14 -61 62q-14 34 -21 88q-2 15 -2 90v102q-3 85 6 170q2 15 5.5 43.5t5.5 42.5q2 38 12 84q3 10 12 34.5t13 39.5q2 8 14 8q4 -1 11.5 -1t12.5 -0.5t11 -2t10 -4.5q15 -6 20 -16 q2 -6 8 -16.5t9 -16.5q6 -12 6 -18q1 -6 1.5 -17.5t1.5 -21t3 -17.5q2 -16 2 -34t-1 -39t-1 -33q3 -22 -2 -43v-25q4 -38 -2 -57q-3 -11 -4 -22.5t-1 -28t-1 -25.5v-27l-4 -4q2 -10 -4 -67v-13q4 -9 4 -36q-4 -27 -2 -39q7 -31 4 -60q3 -25 14 -45q2 -4 10 -4q15 0 21 2 q11 4 41 29q19 19 22 27q58 69 88 120q4 9 14.5 27.5t14.5 30.5q18 23 33 61q29 61 37 86q1 5 6.5 14t7.5 15q13 21 49 24zM4 1114q24 6 25 6q6 3 8 0h31q36 6 55 -22q-7 -42 -17 -74q-12 -12 -18 -20q-2 -1 -4 -3q-34 0 -45 11q-18 18 -21 26q-17 20 -14 43q1 5 0 16.5 t0 16.5z" />
<glyph unicode="j" horiz-adv-x="434" d="M4 829q28 -10 49 -38q34 -43 41 -80q2 -14 12 -36t13 -32q7 -19 16 -57q1 -6 6.5 -35t10.5 -45q7 -28 10.5 -102.5t1.5 -96.5q0 -2 -1 -6t-1 -6q3 -35 6 -72h2q6 8 35 41t41 55q5 8 18.5 25t18.5 25q7 10 17 30t15 29q1 1 103 156q5 9 28 41q11 14 23 -2q5 -9 2 -15 q-4 -15 -12 -26q-15 -30 -29 -72q-7 -20 -21.5 -58.5t-21.5 -58.5q-3 -8 -27 -41q-102 -145 -131 -184q-8 -11 -18.5 -23t-23 -25.5t-19.5 -21.5q-10 -10 -10 -24q4 -40 4 -64v-86q-3 -80 2 -143q4 -26 -4 -109q-13 -180 -80 -272q-3 -3 -11 -16t-14 -19q-11 -13 -39 -33 q-54 -39 -116 -53q-29 -6 -84 -2q-25 2 -70 10q-49 12 -90 47q-19 16 -31 31q-43 48 -33 117q10 74 41 123q50 70 78 98q22 22 49 61q12 13 33.5 41.5t32.5 42.5q26 35 76 66q9 5 22 23q7 12 33 38q7 11 18 19q19 11 15 39q-13 95 -17 258q0 7 -1 20t-1 19q4 90 4 137v72 q0 100 -2 149q0 31 23 125q0 2 4 10q2 2 4 6zM-6 -84l-8 -12q-14 -19 -43 -48.5t-55.5 -55t-30.5 -29.5q-6 -7 -47 -58q-32 -40 -46 -63q-18 -30 -28 -51q-32 -63 -49 -97q-15 -29 -15 -88q3 -11 13 -18q84 -59 192 -23q34 14 41 41q11 22 14 25q38 56 48 139q2 18 5 55 t5 56q1 12 2 35.5t2 35.5v35q1 19 2 56t2 55q0 1 -0.5 2t-1.5 3.5t-2 4.5zM6 1063q-5 28 33 55q8 8 20 0q38 -13 47 -45t-16 -63q-3 -3 -9 -9.5t-9 -9.5q-21 -21 -39 0q-30 33 -27 72z" />
<glyph unicode="k" horiz-adv-x="985" d="M987 618q8 -1 15.5 1t15.5 2l-12 -48q-8 -31 -29.5 -99.5t-30.5 -106.5q-26 -108 -106 -377q-5 -15 -37 -121q-20 -63 -76 -113q-2 -2 -11.5 -10.5t-13 -11.5t-12 -7.5t-16.5 -5.5q-11 -3 -29 -8t-33.5 -9t-29.5 -7q-30 -7 -56.5 -4t-48.5 12t-41 25t-34.5 35.5 t-28.5 43.5t-23.5 48.5t-19.5 51t-16 51t-14 47.5q-2 7 -3 11q-6 21 -18.5 62.5t-18.5 62.5q0 2 -1 5t-1 4q-7 22 -35 48t-51 23q-14 -73 -12 -121q0 -47 -17 -71q-5 -9 -10 -49q0 -46 -18 -66q-6 -6 -13.5 -20t-9.5 -17q-11 -22 -30.5 -31t-41.5 -2q-44 13 -36 82 q6 17 3.5 70.5t-4 72t-8 72t-8.5 70.5q-7 41 -5 115.5t5.5 118t10.5 118t10 115.5q12 179 21 278t36.5 251.5t69.5 269.5q30 84 100 190q64 106 84 133q54 71 123.5 125t134.5 49q4 -1 9.5 -1t12 0.5t9.5 0.5q30 0 35 -2q24 -11 57 -14h8q8 -13 32 -23t32 -18q18 -18 34 -18 q2 0 4 -1.5t5 -3t4 -2.5q29 -22 41 -53q18 -70 26 -88q4 -9 7 -18t5 -17t2.5 -18.5t1.5 -16.5t0 -18t-1 -17t-2 -18.5t-2.5 -17t-3.5 -18.5t-3 -17q-5 -27 -14 -52.5t-26.5 -63.5t-22.5 -50q-31 -75 -127 -203q-49 -66 -96 -108q-15 -12 -39 -38.5t-29 -31.5 q-7 -7 -22.5 -21.5t-22.5 -21.5q-8 -7 -31.5 -29t-36.5 -32q-17 -14 -51.5 -40.5t-52.5 -39.5q-15 -11 -47.5 -32.5t-48.5 -33.5q-4 -3 -10 -20q-2 -18 -7.5 -55t-7.5 -56q0 -7 -2 -26.5t-2 -30t1.5 -27t6.5 -30.5q6 9 13 16q67 89 149 145l35 21q56 31 117 -10 q40 -27 55 -70q22 -70 10 -129q-7 -33 -41.5 -75.5t-66.5 -65.5q-48 -33 -119 -80q2 -2 4.5 -6t3.5 -5q9 -5 28.5 -16t28.5 -16q17 -12 21 -19q35 -54 39 -75q5 -20 17.5 -54t15.5 -45q8 -21 23.5 -62t23.5 -61q18 -41 45 -98q14 -31 38.5 -35.5t48.5 11t44 36t30 39.5 q23 46 53.5 147t35.5 115q15 44 43.5 132.5t42.5 132.5q55 173 65 208zM229 1108q-2 -13 -10.5 -54.5t-12 -61.5t-6 -53t-1.5 -60q0 -4 1 -15t1 -20q15 12 51 39q85 64 117 100q21 23 63.5 68.5t63.5 68.5q40 44 49 58q27 37 112 163q78 118 111 281q18 105 -16 170 q-22 46 -52 63q-37 23 -49 35q-9 9 -19 11.5t-30.5 1t-23.5 -1.5l-5 -5q-51 -36 -63 -43q-41 -28 -121 -212t-104 -279q-38 -160 -56 -254zM287 408q60 52 82 137q11 46 12 51q1 10 2 32t2 34q-4 -3 -14 -9.5t-15 -9.5q-58 -50 -84 -78q-13 -13 -25.5 -30.5t-19.5 -29.5 t-19.5 -36t-17.5 -33q-20 -39 -20 -121q9 3 10 4l54 45t53 44z" />
<glyph unicode="l" d="M618 625q0 -2 -2 -24.5t-4 -33.5q-5 -44 -32 -96q-12 -26 -35.5 -78.5t-36.5 -77.5q-11 -24 -37.5 -65.5t-36.5 -59.5q-7 -14 -26 -51t-28 -55t-25.5 -46.5t-32.5 -51.5q-19 -34 -27 -43q-50 -55 -55 -60q-56 -46 -121 -55q-17 -3 -39 8q-44 24 -66 61t-39 97 q-4 18 -26 145q-2 14 -8 48.5t-7 52.5q-2 77 -2.5 100t4 99.5t5.5 99.5q8 168 26 237q5 24 18 78t21 94.5t12 79.5q3 29 11 62t16 55.5t22.5 61.5t20.5 57q52 151 80 215q19 40 29 60t32 49.5t47 47.5q127 90 244 97q7 1 20 -1.5t19 -2.5q39 3 62 -25q2 -2 14 -8q8 -4 10 -6 q2 -11 14.5 -29t14.5 -31q2 -12 10 -33t10 -32q17 -94 -28 -224q-41 -126 -84 -202q-6 -13 -16.5 -39t-16.5 -39q-8 -16 -26 -44t-25 -40q-33 -57 -76 -115q-35 -55 -92 -102q-9 -8 -27 -25.5t-27 -25.5q-8 -7 -21.5 -19.5t-25 -22.5t-22.5 -18q-7 -5 -22.5 -15.5 t-22.5 -15.5q-17 -8 -17 -28q-2 -24 -7 -70t-7 -69q-10 -96 -6 -121q6 -38 8.5 -81t3.5 -98.5t2 -82.5q1 -6 3 -13t5.5 -14.5t4.5 -11.5q20 -44 65 -72q3 -2 10.5 -1.5t10.5 3.5q33 28 41 41q24 39 55 100q76 144 217 439q3 7 18 47q4 9 11 16t17.5 14.5t14.5 10.5q4 0 6 -2 zM150 672q4 0 6 -2q7 6 21.5 15.5t19.5 12.5q83 64 143 142q77 104 113 174q2 5 23.5 47t31.5 65q18 44 47 136q20 58 23 69q2 13 6 38.5t6 37.5q8 63 2 94q-4 23 -17 60q-3 27 -20 41q-8 8 -8 18q-2 13 -21 27q-4 2 -13 6t-13 6q-24 12 -41 -8q-13 -13 -17 -19 q-51 -82 -53 -86q-10 -16 -19.5 -34t-16 -31.5t-15.5 -36.5t-13 -33t-13.5 -38t-11.5 -34t-12.5 -38.5t-11.5 -34.5q-43 -147 -51 -187q-6 -31 -26 -188q-3 -13 -7.5 -40.5t-7.5 -41.5q-2 -14 -11 -36.5t-11 -31.5q-4 -13 -6.5 -36t-5.5 -33z" />
<glyph unicode="m" horiz-adv-x="1538" d="M1370 106q-13 -34 -22 -47q-41 -64 -54 -94q-24 -50 -59 -74q-10 -7 -26.5 -22.5t-31.5 -26t-32 -16.5q-2 0 -5 -1t-5 -1q-60 -6 -113 14q-34 11 -64 41q-38 43 -59 119q-1 5 -2 17t-2 18q-2 13 -5 39t-5 39v8q0 14 -0.5 39.5t-0.5 46.5t1 39q7 127 41.5 252.5 t95.5 285.5q36 91 47 119q4 13 8 28t8 33t7 29q-4 2 -11 2q-9 -3 -12 -6q-48 -39 -125.5 -118t-103.5 -103q-12 -11 -24 -25t-20 -24.5t-19.5 -30t-16 -27.5t-16.5 -32t-15 -29q-11 -18 -34.5 -59.5t-42 -72.5t-36.5 -58q-3 -3 -8 -13q-5 -9 -14 -26.5t-16 -31.5t-11 -28 q-1 -1 -2.5 -4l-3 -6t-2.5 -6q-15 -26 -22 -45q-5 -20 -5 -29q-1 -3 -3.5 -12t-2.5 -14v-21q-4 -2 -18 -1.5t-19 -6.5q1 -3 5 -21q-6 2 -13 2q-10 -3 -20 7q-4 3 -8 5.5t-9.5 5.5t-9.5 5q-18 8 -33 37q-12 41 -12 82q-2 63 19 157q0 2 12 43q62 205 72 244q1 2 2 6t2 6 q17 47 28 119q0 2 2.5 12t2 12t-2.5 13q-1 -1 -3 -2q-3 -1 -3 -2q-6 -6 -14 -18q-5 -14 -21 -23q-21 -12 -51 -60t-33 -51q-51 -72 -79 -127q-10 -19 -29.5 -65.5t-32.5 -69.5q-16 -29 -45 -102q-1 -3 -2.5 -8t-2.5 -8.5t-1 -6.5q0 -12 -3.5 -22.5t-11 -24.5t-10.5 -20 q-1 -2 -8.5 -16.5t-11.5 -22.5q-10 -20 -25 -35q-13 -11 -28 -29q-10 -12 -37 -30q-12 -9 -25 0q-2 1 -7 3t-7 3q-11 0 -21 10q-8 8 -20 8h-4q-39 3 -43 47v49q0 22 1 66.5t1 67.5q1 9 6 59q4 40 16.5 111t16.5 100q3 17 8 69t12 80q17 66 35 166q2 16 2 49q0 13 10 13 q10 3 19 0q4 0 11 -1t11 -1q24 -3 37 -19q5 -7 19 -12q10 -5 10 -18v-37q0 -21 12 -39q7 -7 10 -15t2.5 -20t-0.5 -17t-4 -21t-4 -17q-6 -25 -9 -71t-5 -60q-4 -48 -8 -152q0 -6 -4 -22q-5 -10 -5 -27q0 -6 -1 -18t-1 -19q2 2 5 3.5t4 2.5q20 46 32 66q3 4 15.5 26t19.5 33 q46 71 68 117q19 33 26 43q4 7 13.5 20.5t13.5 20.5q8 12 14 18q9 10 28 31t28 31q10 12 57 49q20 10 35 22q12 9 26 9h11q2 0 27.5 0.5t27.5 -5.5q37 -19 49 -26q9 -3 21 -12q0 -19 2 -29q0 -5 3 -14.5t3 -14.5q5 -31 -2 -74q-2 -25 -10 -81q-2 -9 -5.5 -29.5t-5.5 -30.5 q0 -6 -4 -10q-6 -8 -10 -29q0 -4 -4 -20q0 -9 -2 -13q7 0 10 7q12 20 36 59.5t36 58.5q1 4 10 17q18 20 45 58.5t37 51.5q4 2 7.5 10t4.5 9q27 47 74 94q12 12 35.5 35t36.5 35q37 37 69 51q6 2 15.5 7.5t11.5 6.5q12 9 28 6q57 -5 70 -6q23 -4 35 -10q6 -2 21 -9t24 -9 q9 -3 16 -13q20 -23 17 -53q-8 -27 0 -45v-12q-2 -4 -2 -15q5 -20 -6 -45q-4 -11 -7 -33t-6 -30q-8 -32 -24 -68q-6 -14 -33 -66.5t-37 -82.5q-20 -58 -39 -164q-6 -33 -20.5 -99t-23 -118.5t-9.5 -98.5q0 -51 -2 -61q-13 -37 -1 -82.5t46 -66.5q9 -6 18 0q15 10 17 12 q30 30 45 55t18 29q24 35 61 108t58 105q32 48 77 141t62 123q10 17 32 51t32 51q6 7 10 17q6 15 29 30q16 -4 22 -4q18 0 23 -4q-2 -18 -19 -47q-14 -21 -18 -33q-5 -11 -20 -30t-19 -27q-8 -16 -22.5 -46.5t-26.5 -54.5t-25 -44q-10 -17 -23.5 -60t-27.5 -63 q-9 -13 -15.5 -28t-13.5 -38t-10 -31z" />
<glyph unicode="n" horiz-adv-x="942" d="M698 655q-8 -36 -31.5 -131t-33.5 -147q-16 -87 -29 -291q-4 -35 -2 -53q0 -7 -4 -15q0 -10 8 -20l6 6q2 2 5.5 6t5.5 6q60 94 71 115q19 33 84 160q13 25 41 65q8 11 43 74q6 10 17.5 32t17.5 32q4 7 12.5 20.5t12.5 20.5q3 6 10 18t10 18q10 20 19 35q9 12 26 4 l-12 -24q-5 -8 -10 -41v-10q-3 -27 -15 -50l-8 -24t-9.5 -26.5t-10.5 -20.5q-21 -42 -33 -60q-18 -30 -46.5 -87t-41.5 -81q-6 -12 -23.5 -46t-26.5 -51t-25 -43t-32 -46q-38 -45 -91 -72.5t-105 -17.5q-36 9 -52 45q-15 39 -16 51q-12 68 -12 137v54q5 105 31 227 q3 16 8 46.5t8 45.5q3 19 9 59.5t9 59.5q15 80 17 92q12 74 12 109v10q-15 -6 -27 -15q-4 -2 -8 -10q-3 -3 -7 -11t-5 -9l-10 -15q-11 -6 -21.5 -18.5t-16 -22t-15 -27.5t-13.5 -24q-3 -5 -80 -110q-22 -31 -61 -111q-5 -11 -24.5 -47.5t-26.5 -56.5q0 -2 -2 -2 q-5 -6 -8.5 -14t-7.5 -21.5t-5 -16.5q-2 -15 -14 -34q-13 -26 -8 -37q0 -3 -5 -13q-3 -7 -22 -45q-5 -11 -19 -8q-12 5 -24 -4q-6 -6 -8 -6q-14 2 -41 -12q-25 -11 -62 0q-11 2 -18 20q-1 4 -2 12.5t-2 12.5q-4 40 -4 59q0 15 -2 21v18q-4 35 -4 104q0 13 -2 19q-3 34 -3 72 v49q-2 35 -2 102q0 23 -2 35v14q2 24 6.5 81.5t6.5 88.5q2 37 10 101q2 16 10 43q3 14 21 18q40 6 73 -10q4 0 4 -4q2 -4 25 -21q1 -4 4 -13t4 -13l4 -4q26 -11 29 -43q0 -6 -0.5 -18.5t-0.5 -20t1 -18t4 -19.5q15 -49 12 -64q-4 -52 -8 -82q-9 -76 -8 -96q0 -6 3 -18.5 t3 -18.5q0 -5 -1.5 -20t-0.5 -23q3 -28 0 -55q0 -31 2 -47q3 0 5 1t2.5 2.5t1.5 3.5t1 3q8 15 23.5 45.5t23.5 46.5q2 5 7.5 14.5t7.5 14.5q2 4 12 29q14 33 21 45q6 8 14 24q11 21 33.5 62t33.5 61q35 58 39 64q7 10 21.5 31.5t21.5 31.5q23 30 45 49q44 38 107 35h49 q23 3 43 -14l39 -39q12 -16 10 -25q-2 -11 6 -35q21 -62 9 -155q-2 -17 -11 -58z" />
<glyph unicode="o" horiz-adv-x="735" d="M231 897q3 -20 -16 -39q-8 -8 -10 -12q-7 -18 -19 -25q-2 -6 -5.5 -12t-8 -12t-6.5 -9q-17 -33 -21 -55q-22 -93 -34 -131q-4 -10 -25 -88q-3 -12 -14.5 -40t-14.5 -44q0 -2 -4 -10q-20 -28 -16 -76q4 -56 8 -86q0 -14 14 -25q4 -4 13.5 -12t13.5 -12q15 -12 31 -6 q5 2 20 7t22 7.5t18.5 7t20.5 10.5t17 13q2 1 20.5 13.5t26.5 19.5q8 5 25 22q28 28 43 53q2 2 2 4q6 19 18 35q1 2 2 7t2 8q-16 8 -37 22q-56 36 -90 82q-17 24 -28 43q-37 70 -17 158q3 15 8.5 29.5t14.5 33.5t12 27l2 4q7 2 20 14t23 13q9 0 25 4q10 1 20.5 -1t16.5 -4 t19 -9t17 -9l15 -7.5t17 -9t14 -8.5t15 -10.5t11 -12t10 -15.5q23 -44 23 -80q3 -18 6 -33q8 -33 4 -80q-1 -10 -9 -28t-9 -27q-2 -7 -4 -21t-4 -22q3 0 7.5 -2t6.5 -2q13 0 41 4q113 17 219 119q6 6 10 14q1 2 4.5 6.5t5.5 5.5q17 4 23 0q19 -7 25 -16q-7 -24 -55.5 -68.5 t-71.5 -52.5q-20 -6 -55 -25.5t-52 -25.5q-63 -23 -96 -17q-11 1 -14.5 1t-14 -2t-14.5 -3q-13 -3 -21 -22q-7 -13 -26 -60q-7 -16 -30 -37.5t-30 -31.5q-28 -38 -43 -47q-9 -6 -25.5 -20.5t-25.5 -20.5q-4 -3 -17.5 -11t-20 -11t-18 -6.5t-22.5 -2.5q-9 1 -18 3t-19.5 6.5 t-16.5 7.5t-18 9.5t-16 8.5q-102 60 -141 133q-20 41 -23 96q-7 62 -4 111q5 42 23 102q24 74 59 142q8 19 27 38q24 28 39 48q5 6 12.5 11.5t17 11.5t13.5 9q15 10 69 45q13 10 31 7q30 -3 57 -21zM373 475q16 20 14 33q0 8 2 12q22 24 17 76q0 4 -1 18.5t-1.5 22.5 t-2 19.5t-4.5 21.5t-8 18q-24 38 -27 54v2q-1 1 -4.5 3.5t-5.5 2.5q-7 0 -10 -8q-6 -18 -8 -21q-16 -36 -21 -67q0 -5 -4 -13q-17 -39 -6 -78q12 -39 37 -71l5 -5t5 -5.5t5 -5t5.5 -4.5t6 -3.5t6.5 -1.5z" />
<glyph unicode="p" horiz-adv-x="978" d="M217 707q5 12 16.5 33t16.5 32q46 85 102 143q69 69 140 82q50 9 94.5 -15t62.5 -73q18 -50 39 -172q2 -13 2 -75q0 -9 1.5 -36t0.5 -42q0 -62 -4 -152q5 3 13 8t10 6q24 20 69.5 48t106.5 62.5t74 41.5q5 3 17.5 13t23 15t20.5 1q-1 -2 0 -6t2 -7.5t0 -3.5 q-9 -6 -24.5 -25t-38.5 -30q-20 -26 -105.5 -85t-97.5 -69q-11 -8 -23 -18.5t-25.5 -23t-21.5 -19.5q-17 -15 -24 -45q-5 -15 -10 -42t-12 -49.5t-19 -39.5q-6 -10 -15.5 -33t-15.5 -33q-18 -35 -37 -39q-7 -9 -34.5 -26t-33.5 -37q-5 -3 -18.5 -19t-26.5 -18 q-2 0 -5.5 -2.5t-4.5 -3.5q-3 -5 -10 -14.5t-10 -14.5q-43 16 -78 56q-20 17 -12 53q13 90 67 147q46 43 49 103q2 27 12 77.5t13 71.5q3 34 6 96t4 82q2 43 7 128t7 128q0 37 -6 49q-29 -5 -55 -34q-67 -76 -111 -183q-7 -16 -47.5 -86.5t-44.5 -111.5q-21 -161 -26 -185 q-5 -19 -9 -75l-18 -99q13 -68 -20 -155q-7 -17 -2 -82.5t4 -83.5q-1 -9 -3.5 -26.5t-3.5 -26.5q-5 -8 -4.5 -72t0.5 -74q0 -57 -2 -86q0 -8 -3.5 -23.5t-4.5 -21.5q-1 1 -1.5 3t-1.5 4t-3 5q-14 -42 -16 -49l-5 -10q-10 -5 -14.5 -12.5t-6 -23t-1.5 -17.5q-4 -27 -21 -29 q-2 -1 -5.5 -6t-4.5 -6q-27 -29 -57 -2q-23 23 -29 32q-4 4 -4 9q4 58 4 86q1 13 2.5 36.5t2.5 43t1 36.5q3 80 0 162q-1 46 -3 138.5t-3 138.5v159q-6 204 -6 205q-1 26 -1 56t0.5 66t0.5 56q0 111 -4 164q-1 18 -7 48.5t-7 41.5q-3 7 -1.5 26t2 25.5t4.5 25.5t5 26 q2 14 22 14q7 -1 21.5 -3t21.5 -3q29 -6 60 -45q15 -19 22 -25q10 -10 32 -28.5t32 -28.5q24 -24 43 -80q2 -8 6 -20q2 -2 6 -2zM371 4q22 13 32.5 44t2.5 56q-1 -1 -5.5 -4.5t-5.5 -5.5q-5 -12 -15 -34l-15 -33q0 -11 2 -15q0 -2 2 -4.5t2 -3.5z" />
<glyph unicode="q" horiz-adv-x="774" d="M381 -506q-50 -58 -129 -94q-6 -3 -34.5 2t-35.5 8l-6 6q-6 13 -16 15q-2 0 -6 4q-29 41 -31 73q0 11 -2 17q-8 37 -17 135q0 7 2.5 22.5t2.5 22.5q-1 21 0.5 42.5t6 47t7.5 39.5t10.5 46.5t9.5 41.5t54 205q20 78 24 94q20 67 12 84q-1 7 -1 10t3 10t3 9q4 22 8 31 q-6 4 -13 0q-3 -2 -9 -6.5t-9 -6.5q-12 -8 -18 -8q-11 0 -29.5 -7.5t-24.5 -8.5q-56 -32 -120 6q-4 2 -12.5 7t-12.5 7q-46 28 -64 76q-18 44 -12 90q0 3 1 10.5t1 10.5q3 21 15 30q-7 13 2 43q6 18 12 33q2 6 5 18.5t5 18.5q7 31 21 51q4 4 8 16q3 10 16 31q5 4 11.5 16 t11.5 17q8 8 24.5 29t26.5 30q4 4 11 13.5t11 13.5q3 3 7.5 8.5t8 9t7.5 5.5q26 16 57 47q2 3 25 20q18 8 37 23q15 15 43 22q52 15 106 12q15 0 39 -4q64 -9 78 -14q29 -7 37 -29q-8 -14 -14 -28q-7 -13 -21 -19q-12 -4 -16 8q0 5 -1.5 9.5t-4.5 8t-5.5 6.5t-7.5 5.5t-7 4 t-8 4t-7 3.5q-33 17 -64 -2q-19 -11 -47 -18q-26 -8 -49 -31q-10 -13 -35 -33q-18 -15 -35 -32q-12 -14 -37 -39q-20 -24 -24 -41q-3 -9 -6 -15q-10 -24 -16 -75t-11 -68q-3 -14 -14.5 -42t-14.5 -44q-2 -13 -2 -84v-27q0 -23 10 -35t33 -22q9 -3 17 2q3 3 10 8.5t10 8.5 q47 47 58 63q26 30 32 41q16 23 37 63q1 2 3 9.5t3 9.5q1 3 3 11t4 14t6 10q2 0 2 4q3 17 15 46t15 36q1 1 2.5 4t2.5 4q2 10 24 78q8 21 31 92q6 18 22 20q47 7 90 -12q0 -10 -2 -16q-10 -37 -2 -66v-14q0 -3 -1 -9.5t-1 -9.5q1 -11 0 -23t-3 -26.5t-3 -23.5v-2 q0 -39 -12 -76v-2q0 -28 -8 -47q-31 -122 -47 -213q-3 -32 -17 -58q-7 -11 -16 -37.5t-12 -33.5q-8 -17 -5 -37q55 32 89 61q50 40 75 58q4 3 11.5 10t11.5 10q46 46 57 60q1 1 49 61q3 6 11 14q25 29 53 76q14 25 14 45q0 6 2 8q4 13 12 13h48q1 0 3.5 -3t4.5 -4l-6 -6 q-12 -6 -15 -18q-4 -16 -92.5 -134.5t-109.5 -129.5q-16 -9 -45.5 -29t-40.5 -27q-16 -16 -19 -20q-8 -10 -22 -21q-19 -16 -41 -32q-26 -21 -39 -29q-24 -18 -21 -49q4 -17 -2 -23q0 -6 2 -6q6 -8 6 -24q-1 -6 4 -37q8 -23 3 -37l4 -42q5 -43 9.5 -107t5.5 -132t-10 -129.5 t-34 -89.5zM301 -512q14 4 16 8q29 61 40.5 129t17.5 160q1 27 -13 87.5t-16 74.5q-1 -5 -2.5 -14t-3.5 -16.5t-6 -12.5q-2 -4 -2 -15q-5 -41 -15 -57v-4q1 0 3.5 -1t3.5 -1q6 0 6 -4q-11 -26 -11 -39q0 -15 -2 -23q-2 -11 -5 -33t-5 -32q-3 -13 0 -25q4 -37 -6 -61 q-2 -2 -2 -17q5 -47 8 -55q7 -20 -2 -37zM152 -84q1 1 3 2t3 2q7 4 4 10q-2 2 -4 2q-8 -4 -8 -10q0 -1 1 -3t1 -3zM272 -289l2 4h-4q0 -2 2 -4zM662 358h2h-2z" />
<glyph unicode="r" horiz-adv-x="677" d="M104 6q5 68 7 78q2 17 6 48t6 48q4 24 4 33q3 19 8 39.5t12.5 46t10.5 35.5q8 25 16 65q2 6 2 13q6 41 -35 61q-58 28 -78 39q-64 43 -77 53q-70 53 -88 119q-2 12 -7 37q-6 58 7 123q8 31 26 67q1 2 13 25q7 15 10 25q2 9 14.5 22.5t13.5 15.5q11 11 13 17q15 15 28 20 q30 8 68 0q5 -1 57 -12q13 -3 27 -14q3 -4 18 -19q16 -12 21 -22q6 -16 4 -27q0 -14 2 -22q1 -4 -4 -25q-4 -20 -4 -25q0 -8 -8 -28q-2 -7 -9.5 -20.5t-9.5 -18.5q-8 -19 -24 -41q-23 -41 -58 -66l-14 -14q-8 -8 -2 -16q36 -60 80 -80q1 -1 73 -35q28 -10 64 -35 q29 -21 37 -37q16 -25 14 -41q-2 -1 -2 -2.5t1 -4t1 -3.5q8 -35 0 -61v-2q2 -10 -4 -28.5t-6 -25.5q-1 -6 -7.5 -20t-8.5 -19q-1 -9 -11 -43q-3 -16 -18 -94q-7 -26 -12 -108q0 -8 -1 -25t-1 -25q0 -2 12 -49q7 -53 18 -75q11 -25 30 -41t40 -7q6 4 31 29q5 5 8 14 q25 46 35 58q0 4 4 12q20 40 45 94q1 2 2 7.5t2 7.5q5 15 35 88q2 8 10.5 27.5t11.5 33.5q2 7 4.5 14.5t6.5 16t6 14.5q5 17 15.5 48.5l12.5 37.5q7 22 15 70q11 33 12 39q2 6 6 19.5t6 19.5q26 69 41 102q12 24 27 45q5 6 14 5t14 -7l2 -4q-2 -7 -2 -37q0 -16 -4 -22 q-2 -4 -2 -11q0 -10 -2 -19.5t-5.5 -20.5t-4.5 -17q-6 -17 -14 -31q-6 -19 -21 -57t-20 -59q-5 -19 -43 -121.5t-60 -153.5q-5 -12 -12.5 -32t-11.5 -29q-2 -12 -15 -29q-18 -37 -36 -78l-11 -22l-3 -7l-5 -10q-5 -7 -14.5 -16.5t-12.5 -13.5q-6 -5 -17 -17.5t-17 -17.5 q-5 -2 -11.5 -7t-7.5 -6q-10 -5 -31 -12q-10 -10 -22 -10l-12 -6q-17 -20 -45 -10q-16 0 -31 6q-12 0 -45 14q-69 40 -86 115q-4 17 -7.5 49.5t-4.5 38.5q-5 50 -5 59zM66 711q22 14 38 39q15 25 19 28q5 7 24 45q9 15 9 29q1 12 3 26.5t5 32t4 27.5q0 8 -2 14 q-13 24 -43 39h-6q-6 0 -6 -4q0 -5 -6 -11.5t-7 -8.5q-10 -13 -10 -27q0 -7 -6 -16q-19 -32 -23 -80v-13v-20q0 -29 -2 -45q0 -28 9 -55z" />
<glyph unicode="s" horiz-adv-x="653" d="M291 276q-25 31 -43 50q-17 17 -52 50t-53 50q-49 43 -84 86q-71 86 -102 141q-29 59 -35 129q0 24 6 45q11 70 64 129q23 29 61 41q48 13 84 0q20 -5 23 -6q29 -6 67 -33q28 -19 -2 -32l-17.5 -7t-22.5 -8t-19 -4q-12 -4 -21 -10q-31 -35 -34 -51q-1 -2 -11 -23 q-11 -22 -4 -53q8 -24 19 -35q2 -2 2 -4q6 -14 25 -35t24 -28q3 -3 10 -9.5t10 -9.5q16 -16 56.5 -49t60.5 -53q35 -35 62 -66q6 -7 18 -22.5t18 -22.5q4 -4 12.5 -11t12.5 -11q18 9 31 22q3 2 14 13q15 10 51 51q13 13 41 37q50 44 64 67l14 14q11 11 25 5t34 -9 q17 -7 7 -20q-1 -1 -3.5 -3t-3.5 -3q-3 -3 -6.5 -14.5t-11.5 -14.5q-5 -1 -29 -20q-7 -5 -17 -18.5t-13 -16.5l-17 -17q-6 -8 -18 -20q-8 -15 -25 -29q-16 -12 -18 -24l-8 -8q-11 -6 -13 -9q-12 -14 -37 -39q-12 -7 0 -22q3 -4 8.5 -12.5t8.5 -12.5q1 -2 4.5 -8t5.5 -8 q13 -16 41 -84q7 -24 4 -43q-3 -20 6 -41q39 -80 -10 -266q-7 -21 -17 -40.5t-19 -32.5t-26 -31t-25.5 -26t-31 -28t-30.5 -27q-26 -25 -72.5 -35t-91.5 -8q-73 5 -144 76q-4 7 -12 10q-17 13 -23 23t-16 16q-8 6 -12 23q-13 76 12.5 158.5t79.5 150.5q7 7 27 37 q7 7 18.5 22t15.5 19q86 91 86 92q2 3 8.5 8.5t8.5 7.5zM332 219q-19 -8 -45 -39q-20 -23 -31 -33q-2 -2 -12 -11t-15 -15q-2 -7 -14 -15q-37 -25 -72 -73q-23 -27 -26 -41v-2q-8 -8 -17 -39q-2 -8 -6 -23.5t-6 -23.5q-8 -31 -4 -92q1 -15 14.5 -24.5t28.5 -6.5q11 0 23 4 q3 1 8 2t8 2q35 6 65 27q43 30 64 41q11 8 27 12q14 4 40 25q9 9 15 18q17 45 14 86q0 82 -16 129q-1 3 -2 8t-2 8q-8 36 -33 72q0 1 -6 4z" />
<glyph unicode="t" horiz-adv-x="612" d="M18 1034q-4 1 -8.5 3t-9.5 5.5t-8 4.5q-10 3 -31 9.5t-31 8.5q-7 2 -22.5 6t-22.5 6q-10 7 -20 10q-48 17 -84 19q-10 2 -35 12q-42 8 -57 4q-6 0 -19 -1t-18 -1q-4 0 -13.5 1t-13.5 1q-9 4 -2 8q4 4 4 7q7 3 41 20q28 13 72 17q14 0 76 -5q19 0 55 -4q5 -1 15 -2t14 -2 q22 -5 43 -2q32 3 67 0q14 -5 23 -2q6 6 6 19q12 68 16 98q2 24 17 57l2 4q26 0 35 -14q9 -18 10 -21q10 -20 2 -36q-2 -6 -2 -23q5 -49 8 -57v-10v-19q0 -20 20 -29q13 -6 39.5 -14t32.5 -10q8 -4 14 -4q51 -3 89 10q20 7 57.5 21.5t56.5 21.5q4 2 14.5 5t14.5 5 q18 9 37 -4q1 -5 -2.5 -16t0.5 -15q-4 -5 -33 -28q-2 -2 -10 -6q-33 -14 -45 -21h-6q-27 -9 -33 -14q-2 -1 -6.5 -2t-6.5 -2q-3 -1 -5.5 -2.5t-5.5 -4.5t-5 -4t-6.5 -3.5t-7.5 -2.5q-12 0 -17 -10q0 -4 -2 -4q-3 -5 -5.5 -6.5t-5.5 -0.5t-9 5q-3 -1 -21 -10q-6 -6 -18 -6 q-2 -2 -2 -3q-19 -8 -43 -4q-29 0 -41 2h-12h-17v-45q-1 -14 -1 -42t-1 -44v-24v-10q-5 -13 -2 -29q10 -139 -2 -396.5t-12 -332.5v-21v-24v-8v-29q-3 -12 2.5 -24t17.5 -15q11 -3 21 4q4 4 11.5 11t12.5 12q6 8 19.5 25.5t19.5 25.5q9 13 121 176q4 12 8 14q7 10 20.5 32 t20.5 32q17 27 43 65q20 32 35 49q11 19 68 101q1 2 2 5.5t2 4.5q4 6 12 19.5t12 19.5q15 18 25 45q2 3 7.5 15t10.5 18q7 7 21 4q27 -9 14 -33l-4 -4q-1 -2 -2.5 -4t-2.5 -3.5t-1 -2.5q-4 -14 -8 -21q-15 -25 -19 -33q-10 -16 -36 -67t-44 -76q-104 -149 -143 -233 q-46 -90 -63 -115q-15 -22 -50.5 -51.5t-42.5 -36.5q-17 -24 -36 -29q-2 0 -5 -2t-4 -2q-13 -8 -26 -8q-55 0 -84 8q-69 12 -94 84q-16 38 -19 88q-3 21 -6 39q0 13 -2 21q-4 36 -4 55v31v59q0 10 1 32.5t1 32.5q2 12 2 33q0 8 1 24.5t1 24.5l6 111q2 8 2 25q2 52 17 127 q1 13 6 86q3 19 8.5 68t11.5 75q3 16 8 68q1 4 1.5 8.5t1 10.5t1.5 11z" />
<glyph unicode="u" horiz-adv-x="964" d="M596 -31l8 8q5 8 16.5 24t16.5 24q12 17 27 43q4 6 11 19t11 19q5 12 16 27q5 13 23 39q22 37 78 127q9 16 49.5 89t65.5 110q1 2 2 6t2 6q1 1 5.5 12t8.5 17q3 6 10.5 19t12.5 24t8 22q24 7 43 4q3 -9 -4 -16q-13 -13 -7 -31q0 -10 -4 -16q-2 -4 -2 -10q-1 -2 -2 -6 t-2 -5q-7 -10 -4 -20q4 -7 -4 -15q-1 -2 -4.5 -8.5t-3.5 -9.5q-3 -21 -33 -59q0 -1 -4 -9q-9 -18 -28.5 -49.5t-26.5 -44.5q-3 -6 -11 -14.5t-10 -13.5q-9 -21 -18 -39q-67 -127 -121 -215q-1 -2 -8 -9q-2 -3 -13 -14q-31 -31 -45 -47q-4 -3 -11 -10t-11 -10 q-12 -14 -39 -41q-10 -10 -25 -13q-29 -4 -43 0q-6 2 -16 2q-24 -4 -55 19q-38 30 -47 78q-14 63 -11 110q0 17 2 27q1 20 3.5 56t3.5 52q1 9 2 26.5t2 25.5q0 14 4 34v13q-8 -4 -11 -7q-5 -6 -12.5 -18.5t-9.5 -15.5l-6 -6q-16 -15 -41 -58q-3 -5 -10.5 -14t-10.5 -14 q-3 -3 -8 -9.5t-8 -9.5q-12 -18 -47 -45q-8 -7 -26.5 -17t-22.5 -12q-4 -4 -8 -4q-7 0 -21.5 -1t-21.5 -1q-6 -3 -13 0q-10 6 -37 6q-13 0 -39 13q-28 16 -34 30q-1 3 -11 13q-22 33 -39 86q-5 18 -9.5 50.5t-6.5 43.5v18v62q0 43 8 76q4 28 4 40q0 14 9 66q0 6 3.5 17 t4.5 14q4 26 8 37q12 65 33 131l6 30q2 9 6 28t6 28q10 30 12 35l17 34q3 13 18 13q27 0 41 -7q1 -3 4 -9t4 -9q-1 -1 -2 -5t-2 -5q-7 -10 0 -25q0 -2 2 -4q12 -11 13 -26t-3 -34t-3 -30q0 -6 4.5 -16.5t5.5 -14.5q3 -15 1.5 -45t0.5 -45q14 -123 6 -215q-1 -16 -7.5 -54 t-6.5 -59q6 -48 6 -53v-47q10 -35 10 -43v-8q4 -25 14 -33q1 -1 4 -4.5t5 -5.5q2 1 5 3t5 3q21 18 39 39q76 97 106 141q3 4 9.5 13.5t9.5 13.5q39 52 59 94q8 11 8 25q2 13 6 41t6 41q10 52 23 92q13 37 23 90q3 13 9 37.5t9 36.5q5 13 8 30q30 10 57 2q22 -6 27 -8 q21 -4 21 -24q0 -24 8 -43q2 -4 2 -15q4 -50 4 -75q-1 -18 6 -48.5t8 -42.5q3 -37 -10 -133q-5 -55 -8 -67q-1 -4 -10.5 -27t-10.5 -37q-4 -30 -8 -94q-6 -50 -6 -98q0 -4 1.5 -21.5t0.5 -25.5q-1 -7 -6 -27t-4 -31v-47q0 -16 6 -37z" />
<glyph unicode="v" horiz-adv-x="907" d="M-33 1030q8 8 21 4q30 0 57 -6q20 -7 23 -24q3 -20 18 -29q11 -8 14 -21q4 -17 25 -51q9 -15 12 -33q3 -20 17 -49q8 -21 13 -68.5t5 -50.5q26 -206 31 -241q3 -20 15 -60.5t15 -62.5q1 -12 2.5 -36t2.5 -39.5t4 -36t8 -36.5q8 -28 8 -45q-5 -25 -4 -32q0 -6 3.5 -15.5 t4.5 -13.5q9 -26 21 -31q4 -2 6 -9.5t6 -10.5q9 5 10 6q15 20 17 24q29 60 34 72l54 111q1 3 3 10t3 10q3 9 9 29t9 29q10 34 33 102q9 35 14 49q5 11 -2 25q-20 25 -41 69q-13 33 -16 62q-8 90 -8 137q0 24 12 70q10 50 31 82q5 10 30 45q11 14 33 14q14 -3 29 0 q11 1 33 -1.5t30 -2.5q15 0 25 -17q31 -44 31 -116q-1 -16 -10 -41.5t-11 -32.5q-3 -11 -7 -33.5t-7 -34.5q-3 -11 -17 -36.5t-16 -40.5q-3 -33 -25 -58q6 -26 25 -45q1 -2 6 -7.5t6 -8.5q7 -16 20 -30.5t22 -20.5t30 -19q13 -10 31 -4q56 20 100 64q31 27 43 51q2 4 6 8 q33 45 37 51q9 14 23 19t28 -2q1 -1 5.5 -2.5t5.5 -2.5q0 -6 2 -10q5 -13 -4 -26q-2 -3 -5.5 -9.5t-5.5 -9.5t-14 -22.5t-21 -26.5q-4 -14 -14 -24t-24.5 -20.5t-20.5 -16.5q-5 -5 -6 -5q-13 -2 -33 -14q-55 -33 -135 -47q-20 -2 -53 6q-13 4 -76 29q-8 4 -10 4 q-19 -13 -13 -33q2 -5 -2 -14q-8 -11 -12 -36t-8 -34q-34 -78 -94 -192q-8 -23 -15 -35q-12 -20 -24 -27q-3 -2 -11.5 -8.5t-15.5 -11t-14 -6.5q-2 0 -2 -2q-8 -8 -25.5 -18.5t-23.5 -14.5q-32 -21 -67.5 -17t-61.5 27q-47 41 -64 90q-6 14 -20 72q-2 2 -2 6 q-7 19 -14.5 60.5t-14.5 60.5q-2 4 -2 14q-6 28 -6 29q-7 25 -16.5 71.5t-12.5 59.5q-1 5 -2.5 14.5t-2.5 17.5t-1 15q-6 34 -6 66q-1 21 -5.5 75.5t-4.5 83.5q0 10 -2.5 29.5t-2.5 28.5v82q0 58 -8 102q-3 27 0 51zM559 928q-8 -3 -10 -5t-2 -8q0 -17 -8 -28 q-18 -30 -15 -72q4 -23 4 -67v-39v-13q3 -6 11 -6q1 2 6 17q2 6 5 18t5 18q1 3 2 9.5t2 9.5q0 7 1 22.5t1 22.5q5 47 8 55q10 33 -10 66z" />
<glyph unicode="w" horiz-adv-x="1247" d="M1294 612q0 -36 -22 -61q-2 -2 -4 -7.5t-2 -6.5q-1 -2 -2 -7.5t-2 -7.5q-15 -47 -33 -67q-8 -9 -18.5 -18.5t-24 -20.5t-19.5 -17q-46 -39 -94 -55q-2 0 -7 -1t-7 -1q-4 -1 -17 -4t-20 -6q-21 -10 -47 -4q-56 10 -101 34h-4q-6 -5 -14 -24q-5 -16 -20 -43q-1 -2 -9 -16 t-10 -21q-17 -44 -49 -98q-7 -12 -16.5 -35t-19 -40.5t-23.5 -31.5q-25 -25 -29 -30q-13 -17 -35 -27t-43 -8q-16 3 -39 -4h-39q-21 5 -28 8q-4 2 -41.5 17t-55.5 26q-42 25 -65 78q-18 52 -21 110q-1 3 -2 9.5t-2 9.5q-6 4 -10 -4q-9 -13 -16 -29q-22 -63 -86 -82 q-19 -7 -41.5 -10.5t-48.5 -1t-39 15.5q-1 1 -21 16q-51 37 -68.5 89t-23.5 133v12q0 4 1 14t1 15q0 41 2 59q2 10 2 29q-4 37 4 63q0 2 1 5t1 5q-2 28 10 82q17 90 46 224q2 8 7 24.5t7 24.5q6 14 22 14q30 -4 43 -8q5 0 11 -6q33 -33 37 -58q2 -14 14 -47q1 -4 4 -11 t4 -11q5 -25 4 -29q-3 -13 2 -51q4 -9 2 -14q-2 -7 -2 -46q0 -12 -4 -36v-25q0 -26 -8 -66q-4 -22 -4.5 -62t-3.5 -58q-20 -121 -17 -156q4 -20 4 -33q0 -10 2 -14q8 -15 19 -4q23 19 33 39q2 3 51 88q2 4 7 12t7 12q15 25 19 33q3 4 5 8t4 9t3 8q17 26 29 86q2 16 5 34.5 t7 40.5t6 35q0 2 1 5.5t1 5.5q5 14 14.5 41.5t14.5 42.5q0 1 8 21.5t12 31.5q5 12 21 20q24 10 43 13q22 3 28 -19q4 -20 2 -29q0 -23 5 -41q2 -10 5 -30t5 -29q15 -95 18 -231q0 -19 0.5 -56.5t0.5 -61t-1 -56.5t-4 -60q-4 -15 4 -28q8 -21 10 -29q7 -24 37 -43 q9 -6 31 -10q6 0 8 2q4 2 10 8q8 10 29 32.5t31 36.5q21 26 69 99q28 43 56 98q5 8 13.5 26.5t10.5 22.5q-4 8 -8 10q-24 24 -41 58q-27 56 -35 102q-3 12 -5 26t-4 30.5t-3 25.5v8q4 28 4 47q0 46 17 105q4 17 26 72q30 13 68 10h41q14 3 22 -8q2 -1 9.5 -9.5t13.5 -9.5 q26 -34 20 -61q-6 -26 4 -58q5 -14 2 -34q-2 -10 -4 -31t-4 -31q-4 -29 -10 -41q-3 -8 -5 -17.5t-4 -20.5t-3 -17q-9 -50 -15 -66q-10 -19 2 -37q2 -3 4.5 -9t4.5 -9q15 -28 43 -37q122 -46 256 144q21 35 34 61q7 13 14.5 16t24.5 0zM893 805q-4 -12 -4 -14q-1 -6 -2 -18.5 t-2 -18.5v-29v-20q-4 -16 -4 -48q0 -8 1 -24.5t1 -24.5q1 -3 1.5 -13.5t2.5 -16.5l2.5 5t2.5 5.5t1 5.5q1 9 3 19t5 21.5t4 18.5q0 1 1 4t1 5q5 87 4 104q0 24 -18 39z" />
<glyph unicode="x" horiz-adv-x="976" d="M1030 610v-4q-16 -89 -18 -96q-1 -3 -2 -8t-2 -8t-3 -7.5t-4.5 -7.5t-5.5 -6q-10 -10 -10 -24q-8 -32 -24 -68q-6 -9 -13.5 -29.5t-9.5 -25.5q-18 -48 -20 -52q-2 -5 -6.5 -15t-6.5 -15q-4 -10 -11 -32t-11 -32q-5 -11 -35 -57q-14 -28 -31 -45q-6 -7 -14.5 -24l-9.5 -19 q-2 -2 -5.5 -7.5t-5.5 -7.5q-10 -8 -29.5 -31.5t-33.5 -33.5q-3 -3 -10.5 -10t-13.5 -11.5t-13 -7.5q-9 -5 -12 -10q-8 -20 -35 -20q-22 0 -55 -11q-18 -5 -43 2q-55 18 -111 74q-50 46 -147 178q-11 17 -25 41q-2 2 -12 17q-6 -4 -15 -13q-11 -11 -26 -20q-4 0 -8 -4 q-53 -53 -68 -66q-6 -10 -16 -16q-12 -8 -29 -29q-5 -7 -15.5 -19t-11.5 -14q-1 -1 -6.5 -8t-7.5 -12q-12 -21 -49 -45q-9 -9 -21 0l6 18q9 23 52 121q33 67 65 109q34 47 74 86q2 2 6 7t6 7q0 13 -12 29q-14 26 -41.5 75.5t-40.5 75.5q-23 43 -115 183q-6 8 -17.5 23.5 t-17.5 23.5q-15 20 -43 41q-17 14 -30 18q-17 4 -19 16q32 42 92 15q16 -8 37 -15q24 -5 56 -16q4 0 8 -4q59 -34 88 -59q6 -6 19.5 -17.5t19.5 -17.5q12 -12 40 -36.5t42 -39.5q4 -3 11.5 -12.5t10.5 -12.5q9 -13 26.5 -36.5t26.5 -36.5q5 -6 21 -33q8 0 12 8 q15 17 42.5 49.5t41.5 48.5q4 5 12.5 15.5t12.5 15.5q54 68 86 123q4 7 24 37q6 9 18 13t21 1q13 -3 13 -14q11 -44 14 -53q8 -27 -4 -50q-12 -25 -17 -41q-7 -20 -22 -47q-14 -27 -43 -63q-14 -19 -53 -72q-10 -13 -17 -18q-40 -45 -49 -54q-12 -14 -13.5 -21.5t5.5 -25.5 q6 -14 14 -28q8 -13 15.5 -29t12 -28l12 -32t11.5 -30q0 -1 1.5 -4t1.5 -4q2 -14 6.5 -28.5t11.5 -33t10 -28.5q10 -24 15 -33q9 -21 26 -35q9 -6 17 -14q11 -15 43 -23q9 -2 22 4q7 7 23 19q40 43 63 78q41 53 70 110q31 61 53 111q2 2 6 10q12 21 30.5 62t22.5 49 q5 10 7 16q6 17 15 50t13 46q3 12 17 39q7 12 14 29q8 21 33 24q10 2 20 -2z" />
<glyph unicode="y" horiz-adv-x="1069" d="M453 504q-3 -8 -9.5 -23.5t-9.5 -23.5q-4 -15 -12 -23q-11 -16 -21 -34.5t-21 -41.5t-18 -36q-23 -44 -53 -68q-34 -31 -103.5 -52.5t-103.5 -0.5q-23 14 -86 61q-34 29 -51 84q-26 78 -22 191q3 100 18 206q6 37 14 66q2 11 23 109q2 10 6 31.5t6 31.5q3 15 19 12 q19 -5 49 -16q25 -9 35 -33q2 -4 24 -53q6 -14 10 -64q1 -9 2.5 -26t2.5 -25q1 -32 -5 -100t-4 -105q0 -203 2 -204l-12 4q9 -18 10 -21q0 -12 2 -18q4 -21 9 -33q4 -15 16 -19.5t25 3.5l12 9t14 11t10 10q31 28 63 69t53 72t54 84t48 76q24 44 30 93q2 15 17 110 q3 19 10 59.5t10 59.5q4 14 14 14q46 0 66 -22q1 -1 12 -23q1 -2 6 -19t7 -26q8 -26 12 -56.5t6 -72.5t4 -59q4 -41 5.5 -118.5t4.5 -111.5q4 -51 0 -153l4 -8q3 2 9.5 5t9.5 5q45 29 74 49q8 5 81 59q43 36 80 64q13 9 43 35q6 6 24.5 19t27.5 22q29 29 45 43q8 6 20 22 q2 1 7.5 6t8.5 6q10 7 19 -2q2 -8 -6 -16q-11 -9 -23 -33q-3 -11 -12 -20q-18 -14 -29 -31q-60 -73 -90 -98q-10 -7 -34.5 -23.5t-37.5 -27.5q-10 -9 -30 -34t-35 -36q-56 -44 -121 -74q-8 -4 -35 -22q-8 -4 -8 -15q0 -3 1 -9t1 -9q0 -14 1 -40.5t1 -39.5q0 -3 -1 -8t-1 -8 q-7 -37 -12.5 -116t-13.5 -120q-23 -94 -31 -119q-5 -15 -23 -43t-22 -43q-7 -20 -32 -47t-32 -39q-2 -4 -12.5 -26.5t-17.5 -30.5q-27 -34 -78.5 -64t-91.5 -30q-5 0 -7 -2q-15 -10 -61 -19q-67 -17 -145 -14q-54 0 -107 18q-47 20 -65 33q-50 37 -89 103q-15 35 -18 69 q0 15 4 35q13 53 39 88q1 2 4 7t4 7q13 26 33 43q13 10 23 23q31 35 61 49q38 20 61 43q13 18 52 35q31 14 73 43q40 29 103 70q23 15 71.5 45.5t71.5 46.5q30 18 51 28q13 10 13 23q0 86 2 129q0 56 4 166v33q0 6 -2 10h-4zM453 78q-20 -3 -31 -10q-21 -12 -47 -25 q-11 -6 -34 -17.5t-34 -17.5q-14 -9 -41.5 -28.5t-42.5 -28.5q-40 -28 -45 -31q-8 -4 -27 -16.5t-30 -16.5q-14 -6 -25 -24q-2 -3 -7.5 -9t-9 -12t-3.5 -12q0 -2 -6 -8q-6 -5 -17.5 -15.5t-17.5 -15.5q-2 -1 -5 -4.5t-5 -3.5q-7 0 -15 -8q-3 -4 -16 -13q-2 -2 -8.5 -6 t-8.5 -6q-39 -31 -61 -51l-8 -8q-16 -28 -29 -99q0 -1 1 -3t1 -3v-39q-3 -39 23 -71q40 -42 106 -56q4 -2 13 -2q69 3 122 19q45 11 99 37q59 32 94 84q27 34 51 69q9 12 12 27q3 8 8.5 24.5t8.5 24.5q12 31 20 96q4 30 8 78q0 9 4 79.5t3 106.5v15zM111 459q4 2 6 4 q-1 0 -3 1t-3 1q-3 0 -5 -2q1 -1 3 -2t2 -2zM-137 -430l-2 2l-4 -2q2 -2 4 -2z" />
<glyph unicode="z" horiz-adv-x="1206" d="M877 -176q-39 -83 -68 -138.5t-79.5 -126t-104.5 -114.5q-3 -3 -9 -6q-17 -3 -49 -25t-53 -26q-45 -11 -127 -11q-155 -4 -235 35q-51 26 -76 78q-5 10 -10 39q0 7 -1.5 21t-1.5 20q0 37 21 84q3 6 9 18.5t9 18.5q3 9 9 18q47 75 135 156q71 62 149 125q47 37 90 65 q56 40 133 90q34 24 72 48q3 1 9 5.5t10 6.5q-9 9 -11 10q-6 2 -17 6t-17 6q-15 5 -35 13q-28 10 -80 18h-14q-15 -4 -42.5 -4h-33.5q-11 -1 -33.5 -2t-32.5 -2q-20 -2 -65.5 -5t-70 -5.5t-61.5 -8.5t-68 -16.5t-60 -26.5q-16 -10 -31 -4q-5 5 -8.5 11t-7.5 16.5t-5 13.5 q4 3 12 14.5t15 14.5q6 0 6 6q1 6 7 17t7 16q2 9 15 22q24 21 60 72t55 70q14 14 42 41t44.5 43.5t39 41.5t39.5 48q28 32 39 57h-10q-21 -8 -29 -10q-11 -3 -69 -23q-10 -3 -17 -8q-15 -9 -32 -12q-5 0 -17 -4q-17 -6 -52.5 -11t-39.5 -6q-11 -2 -32.5 -8.5t-38 -10 t-33.5 -3.5q-36 -2 -86 10t-76 31q-5 3 -47 37l14 7l6 3q27 12 27 14q18 15 33 17q50 12 103 27t122 35.5t102 29.5q34 12 125 37q85 23 176 55q53 20 90 41q1 1 23 12q15 7 25 2q3 -4 3.5 -10t-0.5 -14t-1 -11q0 -19 -13 -32q-1 0 -2 -3q-1 -2 -2 -3q-61 -128 -162 -232 q-36 -36 -92.5 -114t-70.5 -95q-7 -8 -22.5 -25.5t-22.5 -25.5q-3 -2 -5 -10q13 3 23 6q81 22 182 22q61 -3 123 -18q9 -2 74 -23q42 -13 90 -51q4 -3 11 -9t11 -9q7 -3 25 -17q17 12 51 41q105 92 156 134q26 19 72 61q12 12 106 92q4 4 19 14q10 4 18 -0.5t10 -15.5 q0 -6 -4 -14q-13 -27 -20 -35q-11 -18 -13 -29q-3 -30 -26 -53q-2 -2 -22.5 -24t-28 -29.5t-24 -23.5t-30 -26.5t-26.5 -19.5q-18 -10 -45 -35.5t-39 -33.5q-10 -7 -26.5 -17t-29.5 -19t-24 -20q-10 -8 -4 -20q2 -3 6 -8.5t6 -8.5q6 -6 18 -22q26 -37 25.5 -100.5 t-15 -114.5t-34.5 -99q-4 -10 -12 -26zM741 123q-6 -2 -14 -6q-3 -1 -23.5 -11t-31.5 -14q-31 -10 -66 -31q-16 -8 -24 -10q-19 -7 -31 -18q-19 -12 -21 -13q-29 -11 -47 -36q-11 -11 -14 -13q-6 -5 -51 -39q-36 -28 -53 -45q-13 -11 -36.5 -33t-27.5 -26q-49 -44 -65 -53 l-5 -4q-3 -4 -19 -23t-24 -27q-27 -32 -36 -38q-18 -13 -35 -48q-14 -26 -11 -59q3 -36 15 -70q7 -17 16 -26q40 -32 86 -35q78 0 117 2q21 0 57 12q13 3 25 15q8 9 23.5 25.5t28.5 30t24 26.5q54 67 61 77q4 8 10 11q29 36 43 63q20 40 25 47q23 38 47 90q37 84 55 176 q8 57 6 84q0 3 -4 19zM731 -399v2v-2z" />
<glyph unicode="&#x2000;" horiz-adv-x="988" />
<glyph unicode="&#x2001;" horiz-adv-x="1976" />
<glyph unicode="&#x2002;" horiz-adv-x="988" />
<glyph unicode="&#x2003;" horiz-adv-x="1976" />
<glyph unicode="&#x2004;" horiz-adv-x="658" />
<glyph unicode="&#x2005;" horiz-adv-x="494" />
<glyph unicode="&#x2006;" horiz-adv-x="329" />
<glyph unicode="&#x2007;" horiz-adv-x="329" />
<glyph unicode="&#x2008;" horiz-adv-x="247" />
<glyph unicode="&#x2009;" horiz-adv-x="395" />
<glyph unicode="&#x200a;" horiz-adv-x="109" />
<glyph unicode="&#x202f;" horiz-adv-x="395" />
<glyph unicode="&#x205f;" horiz-adv-x="494" />
<glyph unicode="&#x25fc;" horiz-adv-x="808" d="M0 809h809v-809h-809v809z" />
</font>
</defs>
</svg>
